Іп Мен 2 / Yip Man 2 / Ip Man 2 (2010) UHD Remux 4K 2160p HDR Dolby Vision H.265 Ukr/Eng/Chi | Sub Eng

Нові коментарі

Нова тема   Відповісти
Автор Повідомлення
MediumHD 
Частий відвідувач


З нами з: 24.04.20
Востаннє: 19.01.21
Повідомлень: 41

2021-01-12 04:45  
Іп Мен 2 / Yip Man 2 / Ip Man 2 (2010) UHD Remux 4K 2160p HDR Dolby Vision H.265 Ukr/Eng/Chi | Sub Eng

Іп Мен 2 / Yip Man 2 / Ip Man 2 (2010) UHD Remux 4K 2160p HDR Dolby Vision H.265 Ukr/Eng/Chi | Sub Eng


Жанр: біографічний, історичний, драма, бойовик
Країна: Гонконг, Китай



Кінокомпанія: Mandarin Films Co. Ltd.
Режисер: Вілсон Іп / Wilson Yip
Актори: Донні Єн / Donnie Yen, Саймон Ям / Simon Yam, Сю-Вонг Фан / Siu-Wong Fan, Ка Тунг Лам / Ka Tung Lam, Ю Хін / Yu Xing, Ю-Нам Вонг / You-Nam Wong, Чен Зі Хуі / Chen Zhi Hui, та інші.

Сюжет:
1949 року в Гонконзі Іп Мен вирішує відкрити гурток бойових мистецтв і просуває свій стиль (Він Чунь). Господар іншого гуртка, практикуючий стиль Хун Гар, вважає стиль Іп Мена дівчачим. Сусідство 2-х вчителів стає напруженим. Але, загальний ворог, в особі європейського боксера, об'єднує їх.


Тривалість: 01:48:13
Якість: UHD Remux
Відео:
кодек: H.265 (HEVC)
розмір кадру: 3840 х 2160
бітрейт: 55,8 Мб/с
бітова глибина: 10 біт
кольоровий простір: BT.2020 (HDR Dolby Vision)

Аудіо:
мова: українська
переклад: багатоголосий закадровий (ТО "Цікава Ідея" на замовлення Hurtom.com)
кодек: 5.1
бітрейт: 384 кб/с

Аудіо # 2:
мова: англійська
переклад: англійська
кодек: 5.1
бітрейт: 640 Кбіт/с

Аудіо # 3:
мова: китайська
переклад: оригінал
кодек: 5.1
бітрейт: 640 Кбіт/с

Субтитри:
мова: англійська
тип: програмні (м'які)
формат: *.sup
Info

Format : iso6
Codec ID : iso6 (dby1/iso6/mp42/isom/msdh)
File size : 42.2 GiB
Duration : 1 h 48 min
Overall bit rate : 55.8 Mb/s
Encoded date : UTC 2021-01-12 01:44:46
Tagged date : UTC 2021-01-12 01:44:46

Video #1
ID : 1
Format : HEVC
Format/Info : High Efficiency Video Coding
Format profile : Main [email protected]@High
HDR format : SMPTE ST 2086, HDR10 compatible
Codec ID : hev1
Codec ID/Info : High Efficiency Video Coding
Duration : 1 h 48 min
Bit rate : 52.5 Mb/s
Width : 3 840 pixels
Height : 2 160 pixels
Display aspect ratio : 16:9
Frame rate mode : Constant
Frame rate : 24.000 FPS
Color space : YUV
Chroma subsampling : 4:2:0 (Type 2)
Bit depth : 10 bits
Bits/(Pixel*Frame) : 0.264
Stream size : 39.7 GiB (94%)
Default : No
Encoded date : UTC 2021-01-12 01:44:46
Tagged date : UTC 2021-01-12 01:44:46
Color range : Limited
Color primaries : BT.2020
Transfer characteristics : PQ
Matrix coefficients : BT.2020 non-constant
Mastering display color pri : BT.2020
Mastering display luminance : min: 0.0001 cd/m2, max: 1000 cd/m2
Maximum Content Light Level : 399 cd/m2
Maximum Frame-Average Light : 261 cd/m2
Codec configuration box : hvcC

Video #2
ID : 2
Format : HEVC
Format/Info : High Efficiency Video Coding
Format profile : Main [email protected]@High
HDR format : Dolby Vision, Version 1.0, dvhe.07.06, EL+RPU, Blu-ray compatible / SMPTE ST 2086, HDR10 compatible
Codec ID : dvhe
Codec ID/Info : High Efficiency Video Coding with Dolby Vision
Duration : 1 h 48 min
Bit rate : 1 658 kb/s
Width : 1 920 pixels
Height : 1 080 pixels
Display aspect ratio : 16:9
Frame rate mode : Constant
Frame rate : 24.000 FPS
Color space : YUV
Chroma subsampling : 4:2:0 (Type 2)
Bit depth : 10 bits
Bits/(Pixel*Frame) : 0.033
Stream size : 1.25 GiB (3%)
Default : No
Encoded date : UTC 2021-01-12 01:44:46
Tagged date : UTC 2021-01-12 01:44:46
Color range : Limited
Color primaries : BT.2020
Transfer characteristics : PQ
Matrix coefficients : BT.2020 non-constant
Mastering display color pri : BT.2020
Mastering display luminance : min: 0.0001 cd/m2, max: 1000 cd/m2
Codec configuration box : hvcC+dvcC

Audio #1
ID : 3
Format : AC-3
Format/Info : Audio Coding 3
Commercial name : Dolby Digital
Codec ID : ac-3
Duration : 1 h 48 min
Bit rate mode : Constant
Bit rate : 384 kb/s
Channel(s) : 6 channels
Channel layout : L R C LFE Ls Rs
Sampling rate : 44.1 kHz
Frame rate : 28.711 FPS (1536 SPF)
Compression mode : Lossy
Stream size : 297 MiB (1%)
Language : Ukrainian
Service kind : Complete Main
Default : No
Encoded date : UTC 2021-01-12 01:44:46
Tagged date : UTC 2021-01-12 01:44:46

Audio #2
ID : 4
Format : AC-3
Format/Info : Audio Coding 3
Commercial name : Dolby Digital
Codec ID : ac-3
Duration : 1 h 48 min
Bit rate mode : Constant
Bit rate : 640 kb/s
Channel(s) : 6 channels
Channel layout : L R C LFE Ls Rs
Sampling rate : 48.0 kHz
Frame rate : 31.250 FPS (1536 SPF)
Compression mode : Lossy
Stream size : 495 MiB (1%)
Language : English
Service kind : Complete Main
Default : No
Encoded date : UTC 2021-01-12 01:44:46
Tagged date : UTC 2021-01-12 01:44:46

Audio #3
ID : 5
Format : AC-3
Format/Info : Audio Coding 3
Commercial name : Dolby Digital
Codec ID : ac-3
Duration : 1 h 48 min
Bit rate mode : Constant
Bit rate : 640 kb/s
Channel(s) : 6 channels
Channel layout : L R C LFE Ls Rs
Sampling rate : 48.0 kHz
Frame rate : 31.250 FPS (1536 SPF)
Compression mode : Lossy
Stream size : 495 MiB (1%)
Language : Chinese
Service kind : Complete Main
Default : No
Encoded date : UTC 2021-01-12 01:44:46
Tagged date : UTC 2021-01-12 01:44:46
Скріншоти
Джерело: &
Особиста оцінка: 10 - без зайвих вагань рекомендую всім!


Авторський реліз (завантажувати можна без реєстрації)
 Трекер:    Зареєстрований   

Завантажити / скачати фільм українською



відео для новачків



 Зареєстрований:   2021-01-12 04:45
 Розмір:   42.2 GB 
 Оцінка фільму:   10/10 (Голосів: 3)
   
Інші релізи
   Іп Мен 2 / Yip Man 2 / Ip Man 2 (2010) AVC Ukr/Chi | Sub Eng Maters  3 / 0   2.03 GB   2019-12-08 23:46 
   Іп Мен 2 / Yip Man 2 / Ip Man 2 (2010) Ramirezz  2 / 0   1.45 GB   2014-12-06 23:33 
   Іп Мен 2 / Yip Man 2 / Ip Man 2 (2010) 720p Ukr/Chi | Sub Eng chidorisaske  0 / 2   6.88 GB   2012-07-01 15:27 
   Іп Мен 2 / Yip Man 2 / Ip Man 2 (2010) 1080p Ukr/Chi | Sub Eng 11FrYkT  9 / 0   11.27 GB   2012-07-01 09:14 
   Іп Мен 2 / Yip Man 2 / Ip Man 2 (2010) 720p-mini Ukr/Chi Anonymous  7 / 0   2.9 GB   2012-06-30 11:34 
   Іп Мен 2 / Yip Man 2 / Ip Man 2 (2010) Ukr/Chi Цікава ідея  8 / 0   2.18 GB   2012-06-30 10:20 
MediumHD 
Частий відвідувач


З нами з: 24.04.20
Востаннє: 19.01.21
Повідомлень: 41

2021-01-12 04:45  
На жаль зробити наступi частини , немає можливості. Немає в природі їх перекладу, на українську мову.
Electroz 
Відео Гуртом - підтримка та поширення
Відео Гуртом - підтримка та поширення


З нами з: 18.09.14
Востаннє: 19.01.21
Повідомлень: 4273

2021-01-12 06:45  
MediumHD написано:
На жаль зробити наступi частини , немає можливості. Немає в природі їх перекладу, на українську мову.

Цікаво, чи будуть бажаючі підтримати озвучення?
Чи можливо, комусь відома інформація, що будуть озвучувати/озвучили ці фільми?

MediumHD 
Частий відвідувач


З нами з: 24.04.20
Востаннє: 19.01.21
Повідомлень: 41

2021-01-12 14:02  
Electroz
Коли завантажував 1080р , бачив там у коментарях, що люди чекали наступнi частини.Але не сталося.
Особисто я б пiдтримав , якщо б збирали кошти.

Ваш часовий пояс: GMT + 2 Години

Нова тема   Відповісти