Оскар / Oscar (1967) 1080p H.265 3xUkr/Fre | Sub Fre/Eng

Нові коментарі

Нова тема   Відповісти
Автор Повідомлення
Anonymous 







2021-01-12 04:14  
Оскар / Oscar (1967) 1080p H.265 3xUkr/Fre | Sub Fre/Eng

Оскар / Oscar (1967) 1080p H.265 3xUkr/Fre | Sub Fre/Eng


Жанр: комедія
Країна: Франція
Кінокомпанія: Gaumont International
Режисер: Едуард Молінаро / Édouard Molinaro
Актори: Луї Де Фюнес / Louis de Funes, Клод Ріш / Claude Rich, Агата Натансон / Agathe Natanson, Клод Жансак / Claude Gensac, Сільвія Сорель / Sylvia Saurel, Домінік Пейдж / Dominique Page, Маріо Давид / Mario David, Поль Пребуа / Paul Préboist, Жермена Дельба / Germaine Delbat, Роже Ван Хол / Roger Van Hool та інші.

Сюжет:
Бертран Барньє - великий промисловець, до якого з самісінького ранку з'являється його керуючий Крістіан. Він заявляє, що любить його дочку Колет, а після цього зізнається, що вкрав у підприємця кругленьку суму. До того ж бізнесмен дізнається, що його покоївка звільняється і відразу стає баронесою.

Колет заявляє, що вагітна від колишнього шофера на ім'я Оскар. Крім того, з'ясовується, що вона зовсім не дочка Барньє і, не бажаючи залишатися старою дівою, готова вийти заміж за будь-якого зустрічного...

До того ж, до цієї історії домішуються дві чорних валізи, одна з яких набита грошима і коштовностями, а інша жіночою нижньою білизною ... Як тут, від такого потоку подій, що відбуваються протягом одного дня, «бідному» Бертрану не зійти з розуму?!

Тривалість: 01:23:05
Якість:

Відео:
кодек: H.265 (HEVC)
розмір кадру: 1920 x 816
бітрейт: 10 396 кб/с
бітова глибина: 10 біт

Увага! Перед завантаженням переконайтесь, що ваш пристрій відтворення (та/або ПЗ) підтримує H.265 (HEVC)

Аудіо # 1:
мова: українська
озвучення: багатоголосе закадрове
кодек: AC-3 2.0
бітрейт: 192 кб/с

Аудіо # 2:
мова: українська
озвучення: багатоголосе закадрове
кодек: AC-3 2.0
бітрейт: 192 кб/с

Аудіо # 3:
мова: українська
озвучення: багатоголосе закадрове
кодек: AC-3 2.0
бітрейт: 192 кб/с

Аудіо # 4:
мова: французька
озвучення: оригінал
кодек: 2.0
бітрейт: 768 кб/с

Субтитри # 1: (Full)
мова: французька
тип: програмні (м'які)
формат: *.srt

Субтитри # 2: (Full)
мова: англійська
тип: програмні (м'які)
формат: *.srt


Інформація про файл
Код:
General
Unique ID                                : 118054114410118857999133388064327721650 (0x58D06538F027540EFCDFE515A263E2B2)
Complete name                            : Oscar (1967) 1080p H.265 [3xUKR_FRE] [Hurtom].
Format                                   :
Format version                           : Version 4
File size                                : 6.82 GiB
Duration                                 : 1 h 23 min
Overall bit rate                         : 11.7 Mb/s
Movie name                               : Оскар / Oscar (1967)
Encoded date                             : UTC 2021-01-11 23:05:40
Writing application                      : v20.0.0 ('I Am The Sun') 64-bit
Writing library                          : libebml v1.3.5 + v1.4.8
Cover                                    : Yes
Attachments                              : Cover.jpg

Video
ID                                       : 1
Format                                   : HEVC
Format/Info                              : High Efficiency Video Coding
Format profile                           : Main [email protected]@High
Codec ID                                 : V_MPEGH/ISO/HEVC
Duration                                 : 1 h 23 min
Bit rate                                 : 10.4 Mb/s
Width                                    : 1 920 pixels
Height                                   : 816 pixels
Display aspect ratio                     : 2.35:1
Frame rate mode                          : Constant
Frame rate                               : 24.000 FPS
Color space                              : YUV
Chroma subsampling                       : 4:2:0
Bit depth                                : 10 bits
Bits/(Pixel*Frame)                       : 0.276
Stream size                              : 6.03 GiB (89%)
Title                                    : Оскар / Oscar (1967)
Writing library                          : x265 3.4+10-g25b2c0703:[Windows][MSVC 1927][64 bit] 10bit
Encoding settings                        : cpuid=1111039 / frame-threads=4 / numa-pools=16 / wpp / no-pmode / no-pme / no-psnr / no-ssim / log-level=2 / input-csp=1 / input-res=1920x816 / interlace=0 / total-frames=119640 / level-idc=41 / high-tier=1 / uhd-bd=0 / ref=5 / no-allow-non-conformance / no-repeat-headers / annexb / no-aud / no-hrd / info / hash=0 / no-temporal-layers / open-gop / min-keyint=24 / keyint=240 / gop-lookahead=0 / bframes=10 / b-adapt=2 / b-pyramid / bframe-bias=0 / rc-lookahead=60 / lookahead-slices=4 / scenecut=40 / hist-scenecut=0 / radl=0 / no-splice / no-intra-refresh / ctu=32 / min-cu-size=8 / rect / amp / max-tu-size=32 / tu-inter-depth=4 / tu-intra-depth=4 / limit-tu=1 / rdoq-level=2 / dynamic-rd=0.00 / no-ssim-rd / signhide / no-tskip / nr-intra=0 / nr-inter=0 / no-constrained-intra / no-strong-intra-smoothing / max-merge=4 / limit-refs=2 / limit-modes / me=3 / subme=7 / merange=57 / temporal-mvp / no-frame-dup / no-hme / weightp / weightb / no-analyze-src-pics / deblock=-3:-3 / no-sao / no-sao-non-deblock / rd=6 / selective-sao=0 / no-early-skip / no-rskip / no-fast-intra / no-tskip-fast / no-cu-lossless / no-b-intra / no-splitrd-skip / rdpenalty=0 / psy-rd=2.00 / psy-rdoq=1.00 / no-rd-refine / no-lossless / cbqpoffs=0 / crqpoffs=0 / rc=crf / crf=19.0 / qcomp=0.60 / qpstep=4 / stats-write=0 / stats-read=0 / vbv-maxrate=50000 / vbv-bufsize=50000 / vbv-init=0.9 / crf-max=0.0 / crf-min=0.0 / ipratio=1.40 / pbratio=1.30 / aq-mode=1 / aq-strength=1.00 / no-cutree / zone-count=0 / no-strict-cbr / qg-size=32 / no-rc-grain / qpmax=69 / qpmin=0 / no-const-vbv / sar=1 / overscan=0 / videoformat=5 / range=0 / colorprim=1 / transfer=1 / colormatrix=1 / chromaloc=0 / display-window=0 / cll=0,0 / min-luma=0 / max-luma=1023 / log2-max-poc-lsb=8 / vui-timing-info / vui-hrd-info / slices=1 / no-opt-qp-pps / no-opt-ref-list-length-pps / no-multi-pass-opt-rps / scenecut-bias=0.05 / hist-threshold=0.01 / no-opt-cu-delta-qp / no-aq-motion / no-hdr10 / no-hdr10-opt / no-dhdr10-opt / no-idr-recovery-sei / analysis-reuse-level=0 / analysis-save-reuse-level=0 / analysis-load-reuse-level=0 / scale-factor=0 / refine-intra=0 / refine-inter=0 / refine-mv=1 / refine-ctu-distortion=0 / no-limit-sao / ctu-info=0 / no-lowpass-dct / refine-analysis-type=0 / copy-pic=1 / max-ausize-factor=1.0 / no-dynamic-refine / no-single-sei / no-hevc-aq / no-svt / no-field / qp-adaptation-range=1.00 / no-scenecut-aware-qpconformance-window-offsets / right=0 / bottom=0 / decoder-max-rate=0
Language                                 : French
Default                                  : Yes
Forced                                   : No
Color range                              : Limited
Color primaries                          : BT.709
Transfer characteristics                 : BT.709
Matrix coefficients                      : BT.709

Audio #1
ID                                       : 2
Format                                   : AC-3
Format/Info                              : Audio Coding 3
Commercial name                          : Dolby Digital
Codec ID                                 : A_AC3
Duration                                 : 1 h 23 min
Bit rate mode                            : Constant
Bit rate                                 : 192 kb/s
Channel(s)                               : 2 channels
Channel layout                           : L R
Sampling rate                            : 48.0 kHz
Frame rate                               : 31.250 FPS (1536 SPF)
Compression mode                         : Lossy
Stream size                              : 114 MiB (2%)
Title                                    : AC-3 / 2.0 Ch / 192 kbps / MVO / Інтер
Language                                 : Ukrainian
Service kind                             : Complete Main
Default                                  : Yes
Forced                                   : Yes

Audio #2
ID                                       : 3
Format                                   : AC-3
Format/Info                              : Audio Coding 3
Commercial name                          : Dolby Digital
Codec ID                                 : A_AC3
Duration                                 : 1 h 23 min
Bit rate mode                            : Constant
Bit rate                                 : 192 kb/s
Channel(s)                               : 2 channels
Channel layout                           : L R
Sampling rate                            : 48.0 kHz
Frame rate                               : 31.250 FPS (1536 SPF)
Compression mode                         : Lossy
Stream size                              : 114 MiB (2%)
Title                                    : AC-3 / 2.0 Ch / 192 kbps / MVO / СТБ
Language                                 : Ukrainian
Service kind                             : Complete Main
Default                                  : No
Forced                                   : No

Audio #3
ID                                       : 4
Format                                   : AC-3
Format/Info                              : Audio Coding 3
Commercial name                          : Dolby Digital
Codec ID                                 : A_AC3
Duration                                 : 1 h 23 min
Bit rate mode                            : Constant
Bit rate                                 : 192 kb/s
Channel(s)                               : 2 channels
Channel layout                           : L R
Sampling rate                            : 48.0 kHz
Frame rate                               : 31.250 FPS (1536 SPF)
Compression mode                         : Lossy
Stream size                              : 114 MiB (2%)
Title                                    : AC-3 / 2.0 Ch / 192 kbps / MVO / Cine+
Language                                 : Ukrainian
Service kind                             : Complete Main
Default                                  : No
Forced                                   : No

Audio #4
ID                                       : 5
Format                                   :
Format/Info                              : Digital Theater Systems
Codec ID                                 : A_DTS
Duration                                 : 1 h 23 min
Bit rate mode                            : Constant
Bit rate                                 : 768 kb/s
Channel(s)                               : 2 channels
Channel layout                           : L R
Sampling rate                            : 48.0 kHz
Frame rate                               : 93.750 FPS (512 SPF)
Bit depth                                : 24 bits
Compression mode                         : Lossy
Stream size                              : 456 MiB (7%)
Title                                    : / 2.0 Ch / 768 kbps / Original
Language                                 : French
Default                                  : No
Forced                                   : No

Text #1
ID                                       : 6
Format                                   : UTF-8
Codec ID                                 : S_TEXT/UTF8
Codec ID/Info                            : UTF-8 Plain Text
Duration                                 : 1 h 23 min
Bit rate                                 : 65 b/s
Count of elements                        : 1709
Stream size                              : 39.6 KiB (0%)
Title                                    : Full
Language                                 : French
Default                                  : No
Forced                                   : No

Text #2
ID                                       : 7
Format                                   : UTF-8
Codec ID                                 : S_TEXT/UTF8
Codec ID/Info                            : UTF-8 Plain Text
Duration                                 : 1 h 19 min
Bit rate                                 : 71 b/s
Count of elements                        : 1298
Stream size                              : 41.8 KiB (0%)
Title                                    : Full
Language                                 : English
Default                                  : No
Forced                                   : No

Menu
00:00:00.000                             : fr:Chapitre 1
00:04:21.000                             : fr:Chapitre 2
00:09:50.000                             : fr:Chapitre 3
00:11:48.000                             : fr:Chapitre 4
00:16:18.000                             : fr:Chapitre 5
00:19:17.000                             : fr:Chapitre 6
00:23:26.000                             : fr:Chapitre 7
00:26:24.000                             : fr:Chapitre 8
00:33:19.000                             : fr:Chapitre 9
00:37:57.000                             : fr:Chapitre 10
00:42:52.000                             : fr:Chapitre 11
00:47:21.000                             : fr:Chapitre 12
00:54:10.000                             : fr:Chapitre 13
00:58:23.000                             : fr:Chapitre 14
01:02:41.000                             : fr:Chapitre 15
01:07:15.000                             : fr:Chapitre 16
01:15:44.000                             : fr:Chapitre 17
01:22:15.000                             : fr:Chapitre 18
Лог кодування
Код:
x265 [info]: frame I: Avg QP:18.76 kb/s
x265 [info]: frame P: Avg QP:20.19 kb/s
x265 [info]: frame B: Avg QP:21.82 kb/s
Світлини




Джерело: &
Особиста оцінка: 0 - не дивився


Срібний реліз (на рейтинг впливає 50% завантаженого)
 Трекер:    Зареєстрований   

Завантажити / скачати фільм українською



відео для новачків



 Зареєстрований:   2021-01-12 04:14
 Розмір:   6.82 GB 
 Оцінка фільму:   10/10 (Голосів: 2)
   
Інші релізи
   Оскар / Oscar (1967) AVC 3xUkr/Fre | Sub Fre/Eng staf777  6 / 0   1.65 GB   2020-11-28 20:14 
   Оскар / Oscar (1967) Remux 1080p 2хUkr/Fre | Sub Fre/Eng MakRA  1 / 0   18.81 GB   2019-12-06 23:39 
   Оскар / Oscar (1967) 2xUkr/Fra Arsenfpu  2 / 0   1.45 GB   2018-12-22 20:05 
   Оскар / Oscar (1967) 720p 2xUkr/Fre | Sub Fre/Eng igor911  6 / 0   5.91 GB   2018-12-20 21:36 
Ваш часовий пояс: GMT + 2 Години

Нова тема   Відповісти