Судна ніч 3: Рік виборів / The Purge: Election Year (2016) Remux 1080p Ukr/Eng | Sub Ukr/Eng

Нові коментарі

Нова тема   Відповісти
Останній раз роздавалося IronBee (2021-01-19)
Автор Повідомлення
IronBee 
Поважний учасник


З нами з: 08.02.10
Востаннє: 19.01.21
Повідомлень: 234

2021-01-11 19:10  
Судна ніч 3: Рік виборів / The Purge: Election Year (2016) Remux 1080p Ukr/Eng | Sub Ukr/Eng

Судна ніч 3: Рік виборів / The Purge: Election Year (2016) Remux 1080p Ukr/Eng | Sub Ukr/Eng


Жанр: жахи, фантастика, бойовик, трилер, кримінальний
Країна: Франція, США



Кінокомпанія: Blumhouse Productions, Platinum Dunes, Universal Pictures, Why Not Productions
Режисер: Джеймс Демонако
Актори: Френк Ґрілло, Елізабет Мітчелл, Майкелті Вілльямсон, Ітан Філліпс, Едвін Годж, Бетті Гебріел

Сюжет:
Сенатору США Чарлі Роан набридло, що раз на рік в країні проходять так звані «Судні ночі», 12 годин беззаконня і вбивств, за які нікого не карають. Жінка балотується в президенти і планує зупинити традицію, але сильні світу цього проти її затії. В результаті зради Роан виявляється на вулицях міста Вашингтон під час чергової Судної Ночі, і лише глава її служби безпеки Лео Барнс може врятувати сенатора.


Тривалість: 01:48:47
Якість: Remux

Відео:
кодек:
розмір кадру: 1920 х 1080
бітрейт: 28,2 Mб/с

Аудіо # 1:
мова: українська
переклад: багатоголосий закадровий
кодек: 2.0
бітрейт: 192 кб/с
примітка: на протязі фільма зустрічається декілька нецензурних фраз на задньому плані рос. мовою які не були переозвучені навіть в оригінальній доріжці

Аудіо # 2:
мова: англійська
переклад: оригінал
кодек: -HD MA 5.1
бітрейт: 3812 кб/с

Субтитри # 1:
мова: українська (повні)
тип: програмні (м'які)
формат: *.srt

Субтитри # 2:
мова: англійська (повні)
тип: пререндерні
формат: *.PGS
Info
General
Unique ID : 183567417936152631578625355085060739314 (0x8A19CC77B7145F7F6B0AF76ABBAF90F2)
Complete name : D:\Films\Судна ніч 3 Рік виборів The Purge Election Year (2016) Remux 1080p UkrEng Sub UkrEng[Hurtom].
Format :
Format version : Version 4
File size : 24.5 GiB
Duration : 1 h 48 min
Overall bit rate mode : Variable
Overall bit rate : 32.2 Mb/s
Encoded date : UTC 2021-01-12 19:34:26
Writing application : v52.0.0 ('Secret For The Mad') 64-bit
Writing library : libebml v1.4.1 + v1.6.2

Video
ID : 1
Format : AVC
Format/Info : Advanced Video Codec
Format profile : [email protected]
Format settings : CABAC / 4 Ref Frames
Format settings, CABAC : Yes
Format settings, ReFrames : 4 frames
Codec ID : V_MPEG4/ISO/AVC
Duration : 1 h 48 min
Bit rate mode : Variable
Bit rate : 28.2 Mb/s
Maximum bit rate : 33.0 Mb/s
Width : 1 920 pixels
Height : 1 080 pixels
Display aspect ratio : 16:9
Frame rate mode : Constant
Frame rate : 23.976 (24000/1001) FPS
Color space : YUV
Chroma subsampling : 4:2:0
Bit depth : 8 bits
Scan type : Progressive
Bits/(Pixel*Frame) : 0.567
Stream size : 21.4 GiB (88%)
Default : Yes
Forced : No

Audio #1
ID : 2
Format : AC-3
Format/Info : Audio Coding 3
Commercial name : Dolby Digital
Codec ID : A_AC3
Duration : 1 h 48 min
Bit rate mode : Constant
Bit rate : 192 kb/s
Channel(s) : 2 channels
Channel layout : L R
Sampling rate : 48.0 kHz
Frame rate : 31.250 FPS (1536 SPF)
Bit depth : 16 bits
Compression mode : Lossy
Stream size : 149 MiB (1%)
Title : 2.0 192 кб/с багатоголосий закадровий ICTV
Language : Ukrainian
Service kind : Complete Main
Default : Yes
Forced : No

Audio #2
ID : 3
Format : XLL
Format/Info : Digital Theater Systems
Commercial name : -HD Master Audio
Codec ID : A_DTS
Duration : 1 h 48 min
Bit rate mode : Variable
Bit rate : 3 812 kb/s
Channel(s) : 6 channels
Channel layout : C L R Ls Rs LFE
Sampling rate : 48.0 kHz
Frame rate : 93.750 FPS (512 SPF)
Bit depth : 24 bits
Compression mode : Lossless
Stream size : 2.90 GiB (12%)
Language : English
Default : No
Forced : No

Text #1
ID : 4
Format : UTF-8
Codec ID : S_TEXT/UTF8
Codec ID/Info : UTF-8 Plain Text
Duration : 1 h 42 min
Bit rate : 86 b/s
Count of elements : 1227
Stream size : 64.8 KiB (0%)
Language : Ukrainian
Default : No
Forced : No

Text #2
ID : 5
Format : PGS
Muxing mode : zlib
Codec ID : S_HDMV/PGS
Codec ID/Info : Picture based subtitle format used on BDs/HD-DVDs
Duration : 1 h 43 min
Bit rate : 40.7 kb/s
Count of elements : 2872
Stream size : 30.1 MiB (0%)
Language : English
Default : Yes
Forced : No
Скріншоти





Запис і зведення звуку: Bohdan237
Українські субтитри: MutuLI

Джерело: &
Особиста оцінка: 0 - не дивився


Золотий реліз (завантажене не впливає на рейтинг)
 Трекер:    Зареєстрований   

Завантажити / скачати фільм українською



відео для новачків



 Зареєстрований:   2021-01-12 22:01
 Розмір:   24.49 GB 
 Оцінка фільму:   10/10 (Голосів: 1)
   
igor911 
Модератор відео


З нами з: 18.01.08
Востаннє: 19.01.21
Повідомлень: 15337

2021-01-11 23:30  
IronBee написано:
| Sub Eng

додайте офіційні українські субтитри з блурея https://toloka.to/t114926

Додано через 1 хвилину 44 секунди:

окремо субтитри: https://www.opensubtitles.org/uk/subtitles/8384000/the-purge-election-year-uk

[email protected] 
VIP


З нами з: 24.03.17
Востаннє: 19.01.21
Повідомлень: 646

2021-01-18 00:56  
Реліз мертвий?
Ваш часовий пояс: GMT + 2 Години

Нова тема   Відповісти