Втеча [Розширена версія] / The Getaway [Unrated] (1994) 1080p H.265 Ukr/Eng | Sub Ukr/Eng

Нові коментарі

Нова тема   Відповісти
Автор Повідомлення
Anonymous 







2021-01-11 14:45  
Втеча [Розширена версія] / The Getaway [Unrated] (1994) 1080p H.265 Ukr/Eng | Sub Ukr/Eng

Втеча [Розширена версія] / The Getaway [Unrated] (1994) 1080p H.265 Ukr/Eng | Sub Ukr/Eng


Жанр: бойовик, трилер, драма, мелодрама, кримінальний, пригодницький
Країна: США, Японія
Кінокомпанія: Universal Pictures, Largo Entertainment, JVC Entertainment Networks
Режисер: Роджер Дональдсон / Roger Donaldson
Актори: Алек Болдуін / Alec Baldwin, Кім Бейсінґер / Kim Basinger, Майкл Медсен / Michael Madsen, Джеймс Вудс / James Woods, Девід Морс / David Morse, Дженніфер Тіллі / Jennifer Tilly, Джеймс Стівенс / James Stephens та інші.

Сюжет:
Професійний зломщик сейфів Док МакКой допоміг молодому злочинцеві-мексиканцю втекти з-за грат, доставив хлопця його дядьку, але не відчув, звідки загрожує справжня небезпека, і в результаті сам потрапив у в'язницю. Через деякий час Керол МакКой, дружина Дока, переспала з продажним інспектором Джеком Беньоном, і той посприяв достроковому звільненню «ведмежатника».

Проте у Джека були надзвичайно далекосяжні плани на найближче майбутнє Дока і Керол: під тиском шантажиста Беньона подружжя повинне було здійснити пограбування банку...

Тривалість: 01:55:49
Якість:

Відео:
кодек: H.265 (HEVC)
розмір кадру: 1920 x 816
бітрейт: 12 180 кб/с
бітова глибина: 10 біт

Увага! Перед завантаженням переконайтесь, що ваш пристрій відтворення (та/або ПЗ) підтримує H.265 (HEVC)

Аудіо # 1:
мова: українська
озвучення: багатоголосе закадрове
кодек: AC-3 5.1
бітрейт: 640 кб/с

Аудіо # 2:
мова: англійська
озвучення: оригінал
кодек: AC-3 5.1
бітрейт: 640 кб/с

Субтитри # 1: (Full by urij546724)
мова: українська
тип: програмні (м'які)
формат: *.srt

Субтитри # 2-3: (Full, SDH)
мова: англійська
тип: програмні (м'які)
формат: *.srt


Інформація про файл
Код:
General
Unique ID                                : 205747889698300949228344468633198624903 (0x9AC99A283C455A01F632B7E86E418087)
Complete name                            : The Getaway (1994) [Unrated] 1080p H.265 [UKR_ENG] [Hurtom].
Format                                   :
Format version                           : Version 4
File size                                : 10.9 GiB
Duration                                 : 1 h 55 min
Overall bit rate                         : 13.5 Mb/s
Movie name                               : Втеча [Розширена версія] / The Getaway [Unrated] (1994)
Encoded date                             : UTC 2021-01-11 12:34:58
Writing application                      : v20.0.0 ('I Am The Sun') 64-bit
Writing library                          : libebml v1.3.5 + v1.4.8
Cover                                    : Yes
Attachments                              : Cover.jpg

Video
ID                                       : 1
Format                                   : HEVC
Format/Info                              : High Efficiency Video Coding
Format profile                           : Main [email protected]@High
Codec ID                                 : V_MPEGH/ISO/HEVC
Duration                                 : 1 h 55 min
Bit rate                                 : 12.2 Mb/s
Width                                    : 1 920 pixels
Height                                   : 816 pixels
Display aspect ratio                     : 2.35:1
Frame rate mode                          : Constant
Frame rate                               : 23.976 (24000/1001) FPS
Color space                              : YUV
Chroma subsampling                       : 4:2:0
Bit depth                                : 10 bits
Bits/(Pixel*Frame)                       : 0.324
Stream size                              : 9.85 GiB (90%)
Title                                    : Втеча [Розширена версія] / The Getaway [Unrated] (1994)
Writing library                          : x265 3.4+4-g3ae3d7116:[Windows][GCC 10.2.0][64 bit] 10bit
Encoding settings                        : cpuid=1111039 / frame-threads=3 / numa-pools=8 / wpp / no-pmode / no-pme / no-psnr / no-ssim / log-level=2 / input-csp=1 / input-res=1920x816 / interlace=0 / total-frames=166620 / level-idc=41 / high-tier=1 / uhd-bd=0 / ref=5 / no-allow-non-conformance / no-repeat-headers / annexb / no-aud / no-hrd / info / hash=0 / no-temporal-layers / open-gop / min-keyint=23 / keyint=240 / gop-lookahead=0 / bframes=12 / b-adapt=2 / b-pyramid / bframe-bias=0 / rc-lookahead=40 / lookahead-slices=0 / scenecut=40 / hist-scenecut=0 / radl=0 / no-splice / no-intra-refresh / ctu=64 / min-cu-size=8 / rect / amp / max-tu-size=32 / tu-inter-depth=4 / tu-intra-depth=4 / limit-tu=1 / rdoq-level=2 / dynamic-rd=0.00 / no-ssim-rd / signhide / no-tskip / nr-intra=0 / nr-inter=0 / no-constrained-intra / no-strong-intra-smoothing / max-merge=5 / limit-refs=3 / no-limit-modes / me=3 / subme=7 / merange=57 / temporal-mvp / no-frame-dup / no-hme / weightp / weightb / no-analyze-src-pics / deblock=-3:-3 / no-sao / no-sao-non-deblock / rd=6 / selective-sao=0 / no-early-skip / rskip / no-fast-intra / no-tskip-fast / no-cu-lossless / b-intra / no-splitrd-skip / rdpenalty=0 / psy-rd=2.00 / psy-rdoq=1.00 / no-rd-refine / no-lossless / cbqpoffs=0 / crqpoffs=0 / rc=crf / crf=18.2 / qcomp=0.60 / qpstep=4 / stats-write=0 / stats-read=0 / vbv-maxrate=50000 / vbv-bufsize=50000 / vbv-init=0.9 / crf-max=0.0 / crf-min=0.0 / ipratio=1.40 / pbratio=1.30 / aq-mode=1 / aq-strength=1.00 / no-cutree / zone-count=1 / zones: / start-frame=162321 / end-frame=166612 / qp=36 / no-strict-cbr / qg-size=32 / no-rc-grain / qpmax=69 / qpmin=0 / no-const-vbv / sar=1 / overscan=0 / videoformat=5 / range=0 / colorprim=2 / transfer=2 / colormatrix=2 / chromaloc=0 / display-window=0 / cll=0,0 / min-luma=0 / max-luma=1023 / log2-max-poc-lsb=8 / vui-timing-info / vui-hrd-info / slices=1 / no-opt-qp-pps / no-opt-ref-list-length-pps / no-multi-pass-opt-rps / scenecut-bias=0.00 / hist-threshold=0.01 / no-opt-cu-delta-qp / no-aq-motion / no-hdr10 / no-hdr10-opt / no-dhdr10-opt / no-idr-recovery-sei / analysis-reuse-level=0 / analysis-save-reuse-level=0 / analysis-load-reuse-level=0 / scale-factor=0 / refine-intra=0 / refine-inter=0 / refine-mv=1 / refine-ctu-distortion=0 / no-limit-sao / ctu-info=0 / no-lowpass-dct / refine-analysis-type=0 / copy-pic=1 / max-ausize-factor=1.0 / no-dynamic-refine / no-single-sei / no-hevc-aq / no-svt / no-field / qp-adaptation-range=1.00 / no-scenecut-aware-qpconformance-window-offsets / right=0 / bottom=0 / decoder-max-rate=0
Language                                 : English
Default                                  : Yes
Forced                                   : No

Audio #1
ID                                       : 2
Format                                   : AC-3
Format/Info                              : Audio Coding 3
Commercial name                          : Dolby Digital
Codec ID                                 : A_AC3
Duration                                 : 1 h 55 min
Bit rate mode                            : Constant
Bit rate                                 : 640 kb/s
Channel(s)                               : 6 channels
Channel layout                           : L R C LFE Ls Rs
Sampling rate                            : 48.0 kHz
Frame rate                               : 31.250 FPS (1536 SPF)
Compression mode                         : Lossy
Stream size                              : 530 MiB (5%)
Title                                    : AC-3 / 5.1 Ch / 640 kbps / MVO / Канал "Україна" / Студія "Так Треба Продакшн"
Language                                 : Ukrainian
Service kind                             : Complete Main
Default                                  : Yes
Forced                                   : Yes

Audio #2
ID                                       : 3
Format                                   : AC-3
Format/Info                              : Audio Coding 3
Commercial name                          : Dolby Digital
Codec ID                                 : A_AC3
Duration                                 : 1 h 55 min
Bit rate mode                            : Constant
Bit rate                                 : 640 kb/s
Channel(s)                               : 6 channels
Channel layout                           : L R C LFE Ls Rs
Sampling rate                            : 48.0 kHz
Frame rate                               : 31.250 FPS (1536 SPF)
Compression mode                         : Lossy
Stream size                              : 530 MiB (5%)
Title                                    : AC-3 / 5.1 Ch / 640 kbps / Original
Language                                 : English
Service kind                             : Complete Main
Default                                  : No
Forced                                   : No

Text #1
ID                                       : 4
Format                                   : UTF-8
Codec ID                                 : S_TEXT/UTF8
Codec ID/Info                            : UTF-8 Plain Text
Duration                                 : 1 h 50 min
Bit rate                                 : 72 b/s
Count of elements                        : 979
Stream size                              : 58.9 KiB (0%)
Title                                    : Full by urij546724
Language                                 : Ukrainian
Default                                  : No
Forced                                   : No

Text #2
ID                                       : 5
Format                                   : UTF-8
Codec ID                                 : S_TEXT/UTF8
Codec ID/Info                            : UTF-8 Plain Text
Duration                                 : 1 h 49 min
Bit rate                                 : 41 b/s
Count of elements                        : 987
Stream size                              : 33.3 KiB (0%)
Title                                    : Full
Language                                 : English
Default                                  : No
Forced                                   : No

Text #3
ID                                       : 6
Format                                   : UTF-8
Codec ID                                 : S_TEXT/UTF8
Codec ID/Info                            : UTF-8 Plain Text
Duration                                 : 1 h 54 min
Bit rate                                 : 46 b/s
Count of elements                        : 1176
Stream size                              : 39.3 KiB (0%)
Title                                    : SDH
Language                                 : English
Default                                  : No
Forced                                   : No

Menu
00:00:00.000                             : en:Target Practice (Main Titles)
00:17:12.031                             : en:Out of Mexico
00:28:04.850                             : en:The Truck Hijack
00:31:49.741                             : en:Masks and Mayhem
00:36:58.383                             : en:The Getaway
00:39:16.021                             : en:The Double Cross
00:42:31.382                             : en:Completing the Deal
00:57:22.940                             : en:The veterinarian's Wife
01:01:15.839                             : en:The Storage Locker
01:12:36.019                             : en:Passing Through New Mexico
01:17:25.474                             : en:Cops and Cabs
01:28:41.984                             : en:The Border Hotel
01:33:28.936                             : en:Set Up
01:37:53.200                             : en:The Ambush
01:44:47.949                             : en:A Tug of War
01:51:08.329                             : en:Vaya Con Dios (End Titles)
Лог кодування
Код:
x265 [info]: frame I: 699, Avg QP:17.70 kb/s: 26496.61
x265 [info]: frame P: 36060, Avg QP:19.00 kb/s: 21206.81
x265 [info]: frame B: 129861, Avg QP:20.94 kb/s: 9593.99
x265 [info]: Weighted P-Frames: Y:8.7% UV:6.8%
x265 [info]: Weighted B-Frames: Y:5.5% UV:3.7%
x265 [info]: consecutive B-frames: 1.3% 3.2% 5.9% 49.9% 13.7% 23.7% 1.0% 0.9% 0.1% 0.1% 0.0% 0.0% 0.0%
x265 [info]: encoded 166620 frames in 154859.12s (1.08 fps), 12178.15 kb/s, Avg QP:20.50
Світлини




Джерело: & &
Особиста оцінка: 0 - не дивився


Срібний реліз (на рейтинг впливає 50% завантаженого)
 Трекер:    Зареєстрований   

Завантажити / скачати фільм українською



відео для новачків



 Зареєстрований:   2021-01-11 14:45
 Розмір:   10.89 GB 
 Оцінка фільму:   10/10 (Голосів: 3)
   
Ваш часовий пояс: GMT + 2 Години

Нова тема   Відповісти