Іп Мен / Yip Man / Ip Man (2008) UHD Remux 4K 2160p HDR Dolby Vision H.265 Ukr/Eng/Chi | Sub Eng

Нові коментарі

Нова тема   Відповісти
Автор Повідомлення
MediumHD 
Частий відвідувач


З нами з: 24.04.20
Востаннє: 28.01.21
Повідомлень: 46

2021-01-11 02:50  
Іп Мен / Yip Man / Ip Man (2008) UHD Remux 4K 2160p HDR Dolby Vision H.265 Ukr/Eng/Chi | Sub Eng

Іп Мен / Yip Man / Ip Man (2008) UHD Remux 4K 2160p HDR Dolby Vision H.265 Ukr/Eng/Chi | Sub Eng


Жанр: екшн, біографічний, драма, історичний
Країна: Гонконг, Китай



Кінокомпанія: Beijing ShengShi HuaRei Film Investment & Management Co., China Film Co-Production Corporation, Mandarin Films Distribution Co.
Режисер: Вілсон Іп / Wilson Yip
Актори: Донні Єн / Donnie Yen, Саймон Ям / Simon Yam, Сю-Вонг Фан / Siu-Wong Fan, Ка Тунг Лам / Ka Tung Lam, Ю Хін / Yu Xing, Ю-Нам Вонг / You-Nam Wong, Чен Зі Хуі / Chen Zhi Hui, та інші.

Сюжет:
Іп Ман - визнаний майстер кунг фу, що живе в Фуошане, місті, славному своїми школами бойових мистецтв. Іп Ман практикує Він Чун і хоч і є найсильнішим бійцем міста, своєї школи у нього немає, і він не бере учнів. Вдома він проводить лише легкі спаринги з приятелями, щоб вказати на помилки один одного. Проходять роки, Китай захоплюють войовничі японці, і Іп Ман виявляється одним з небагатьох, хто навіть в жорстоких умовах окупації не забуває про честь, гідність і, звичайно ж, мудрість, яку несе в собі кунг фу.


Тривалість: 01:46:21
Якість: UHD Remux
Відео:
кодек: H.265 (HEVC)
розмір кадру: 3840 х 2160
бітрейт: 53.8 Мб/с
бітова глибина: 10 біт
кольоровий простір: BT.2020 (HDR Dolby Vision)

Аудіо:
мова: українська
переклад: багатоголосий закадровий (ТО "Цікава Ідея" на замовлення Hurtom.com)
кодек: 5.1
бітрейт: 640 кб/с

Аудіо # 2:
мова: англійська
переклад: англійська
кодек: 5.1
бітрейт: 640 Кбіт/с

Аудіо # 3:
мова: китайська
переклад: оригінал
кодек: 5.1
бітрейт: 640 Кбіт/с

Субтитри:
мова: англійська
тип: програмні (м'які)
формат: *.sup
Info
Format : iso6
Codec ID : iso6 (dby1/iso6/mp42/isom/msdh)
File size : 40.0 GiB
Duration : 1 h 46 min
Overall bit rate : 53.8 Mb/s
Encoded date : UTC 2021-01-10 23:10:27
Tagged date : UTC 2021-01-10 23:10:27

Video #1
ID : 1
Format : HEVC
Format/Info : High Efficiency Video Coding
Format profile : Main [email protected]@High
HDR format : SMPTE ST 2086, HDR10 compatible
Codec ID : hev1
Codec ID/Info : High Efficiency Video Coding
Duration : 1 h 46 min
Bit rate : 50.0 Mb/s
Width : 3 840 pixels
Height : 2 160 pixels
Display aspect ratio : 16:9
Frame rate mode : Constant
Frame rate : 24.000 FPS
Color space : YUV
Chroma subsampling : 4:2:0 (Type 2)
Bit depth : 10 bits
Bits/(Pixel*Frame) : 0.251
Stream size : 37.2 GiB (93%)
Default : No
Encoded date : UTC 2021-01-10 23:10:27
Tagged date : UTC 2021-01-10 23:10:27
Color range : Limited
Color primaries : BT.2020
Transfer characteristics : PQ
Matrix coefficients : BT.2020 non-constant
Mastering display color pri : BT.2020
Mastering display luminance : min: 0.0001 cd/m2, max: 1000 cd/m2
Maximum Content Light Level : 462 cd/m2
Maximum Frame-Average Light : 284 cd/m2
Codec configuration box : hvcC

Video #2
ID : 2
Format : HEVC
Format/Info : High Efficiency Video Coding
Format profile : Main [email protected]@High
HDR format : Dolby Vision, Version 1.0, dvhe.07.06, EL+RPU, Blu-ray compatible / SMPTE ST 2086, HDR10 compatible
Codec ID : dvhe
Codec ID/Info : High Efficiency Video Coding with Dolby Vision
Duration : 1 h 46 min
Bit rate : 1 897 kb/s
Width : 1 920 pixels
Height : 1 080 pixels
Display aspect ratio : 16:9
Frame rate mode : Constant
Frame rate : 24.000 FPS
Color space : YUV
Chroma subsampling : 4:2:0 (Type 2)
Bit depth : 10 bits
Bits/(Pixel*Frame) : 0.038
Stream size : 1.41 GiB (4%)
Default : No
Encoded date : UTC 2021-01-10 23:10:27
Tagged date : UTC 2021-01-10 23:10:27
Color range : Limited
Color primaries : BT.2020
Transfer characteristics : PQ
Matrix coefficients : BT.2020 non-constant
Mastering display color pri : BT.2020
Mastering display luminance : min: 0.0001 cd/m2, max: 1000 cd/m2
Codec configuration box : hvcC+dvcC

Audio #1
ID : 3
Format : AC-3
Format/Info : Audio Coding 3
Commercial name : Dolby Digital
Codec ID : ac-3
Duration : 1 h 46 min
Bit rate mode : Constant
Bit rate : 640 kb/s
Channel(s) : 6 channels
Channel layout : L R C LFE Ls Rs
Sampling rate : 44.1 kHz
Frame rate : 28.711 FPS (1536 SPF)
Compression mode : Lossy
Stream size : 488 MiB (1%)
Service kind : Complete Main
Default : No
Encoded date : UTC 2021-01-10 23:10:27
Tagged date : UTC 2021-01-10 23:10:27

Audio #2
ID : 4
Format : AC-3
Format/Info : Audio Coding 3
Commercial name : Dolby Digital
Codec ID : ac-3
Duration : 1 h 46 min
Bit rate mode : Constant
Bit rate : 640 kb/s
Channel(s) : 6 channels
Channel layout : L R C LFE Ls Rs
Sampling rate : 48.0 kHz
Frame rate : 31.250 FPS (1536 SPF)
Compression mode : Lossy
Stream size : 488 MiB (1%)
Service kind : Complete Main
Default : No
Encoded date : UTC 2021-01-10 23:10:27
Tagged date : UTC 2021-01-10 23:10:27

Audio #3
ID : 5
Format : AC-3
Format/Info : Audio Coding 3
Commercial name : Dolby Digital
Format settings : Dolby Surround EX
Codec ID : ac-3
Duration : 1 h 46 min
Bit rate mode : Constant
Bit rate : 640 kb/s
Channel(s) : 6 channels
Channel layout : L R C LFE Ls Rs
Sampling rate : 48.0 kHz
Frame rate : 31.250 FPS (1536 SPF)
Compression mode : Lossy
Stream size : 488 MiB (1%)
Language : English
Service kind : Complete Main
Default : No
Encoded date : UTC 2021-01-10 23:10:27
Tagged date : UTC 2021-01-10 23:10:27
Скріншоти
Джерело: &
Особиста оцінка: 10 - без зайвих вагань рекомендую всім!


Золотий реліз (завантажене не впливає на рейтинг)
 Трекер:    Зареєстрований   

Завантажити / скачати фільм українською



відео для новачків



 Зареєстрований:   2021-01-11 02:50
 Розмір:   40.03 GB 
 Оцінка фільму:   6.8/10 (Голосів: 6)
   
Інші релізи
   Іп Мен / Yip Man / Ip Man (2008) AVC Ukr/Chi | sub Eng staf777  11 / 0   2.55 GB   2019-09-18 10:09 
   Іп Мен / Yip Man / Ip Man (2008) 720p-mini Ukr/Chi | Sub Eng Anonymous  4 / 0   3.02 GB   2012-02-11 22:49 
   Іп Мен / Yip Man / Ip Man (2008) Remux Ukr/Chi | sub Eng/Chi Andick  1 / 0   22.17 GB   2012-02-11 00:44 
   Іп Мен / Yip Man / Ip Man (2008) 1080p Ukr/Chi | sub Eng Andick  8 / 0   9.97 GB   2012-02-10 21:07 
   Іп Мен / Yip Man / Ip Man (2008) Цікава ідея  12 / 0   1.45 GB   2012-02-10 20:23 
Ваш часовий пояс: GMT + 2 Години

Нова тема   Відповісти