Дрімленд / Dreamland (2019) Remux 1080p Ukr/Eng | sub Eng

Нові коментарі

Нова тема   Відповісти
Автор Повідомлення
Anonymous 







2021-01-11 00:27  
Дрімленд / Dreamland (2019) Remux 1080p Ukr/Eng | sub Eng

Дрімленд / Dreamland (2019) Remux 1080p Ukr/Eng | sub Eng


Жанр: драма, трилер
Країна: США



Кінокомпанія: Automatik Entertainment, LuckyChap Entertainment, Romulus Entertainment
Режисер: Майлз Джоріс-Пейрафіт / Miles Joris-Peyrafitte
Актори: Фінн Коул / Finn Cole, Марґо Роббі / Margot Robbie, Тревіс Фіммел / Travis Fimmel, Керрі Кондон / Kerry Condon, Дербі Кемп / Darby Camp, Лола Кьорк / Lola Kirke, Стівен Дін / Stephen Dinh, Тім Д. Дженіс / Tim D. Janis та ін.

Сюжет:
Дія фільму розгортається в 1930-і роки під час Великої депресії в Америці. 17-річний Юджин Еванс випадково знаходить поранену грабіжницю банків, за чию голову обіцяють грошову винагороду. Герой розривається між нагородою, яка може врятувати сімейну ферму від боргів, і виниклим почуттям до злочинниці.


Тривалість: 01:41:00
Якість: Remux 1080p
Відео:
кодек:
розмір кадру: 1920x1080
бітрейт: 34900 кб/с

Аудіо # 1:
мова: українська
переклад: професійний дубльований | Pie Post Production
кодек: 2.0
бітрейт: 192 кб/с

Аудіо # 2:
мова: англійська
переклад: оригінал
кодек: 5.1
бітрейт: 640 кб/с

Аудіо # 3:
мова: англійська
переклад: оригінал
кодек: TrueHD+Atmos 5.1
бітрейт: 3203 кб/с

Субтитри # 1 - 2 (Full, SDH) :
мова: англійська
тип: програмні (м'які)
формат: *.srt

Збережено оригінальні розділи, як на BluRay
Info
General
Complete name : Dreamland (2019) Remux 1080p [ukr, eng] [Hurtom].
Format :
Format version : Version 4
File size : 27.5 GiB
Duration : 1 h 41 min
Overall bit rate mode : Variable
Overall bit rate : 39.0 Mb/s
Movie name : Дрімленд / Dreamland (2019)
Encoded date : UTC 2021-01-12 14:59:06
Writing application : v30.1.0 ('Forever And More') 64-bit
Writing library : libebml v1.3.6 + v1.4.9
Cover : Yes
Attachments : cover.jpg

Video
ID : 1
Format : AVC
Format/Info : Advanced Video Codec
Format profile : [email protected]
Format settings : CABAC / 2 Ref Frames
Format settings, CABAC : Yes
Format settings, RefFrames : 2 frames
Codec ID : V_MPEG4/ISO/AVC
Duration : 1 h 41 min
Bit rate mode : Variable
Bit rate : 34.9 Mb/s
Width : 1 920 pixels
Height : 1 080 pixels
Display aspect ratio : 16:9
Frame rate mode : Constant
Frame rate : 23.976 (24000/1001) FPS
Color space : YUV
Chroma subsampling : 4:2:0
Bit depth : 8 bits
Scan type : Progressive
Bits/(Pixel*Frame) : 0.701
Stream size : 24.6 GiB (89%)
Language : English
Default : Yes
Forced : No

Audio #1
ID : 2
Format : AC-3
Format/Info : Audio Coding 3
Commercial name : Dolby Digital
Codec ID : A_AC3
Duration : 1 h 41 min
Bit rate mode : Constant
Bit rate : 192 kb/s
Channel(s) : 2 channels
Channel layout : L R
Sampling rate : 48.0 kHz
Frame rate : 31.250 FPS (1536 SPF)
Bit depth : 16 bits
Compression mode : Lossy
Stream size : 139 MiB (0%)
Title : 2.0 | 192
Language : Ukrainian
Service kind : Complete Main
Default : Yes
Forced : No

Audio #2
ID : 3
Format : AC-3
Format/Info : Audio Coding 3
Commercial name : Dolby Digital
Codec ID : A_AC3
Duration : 1 h 41 min
Bit rate mode : Constant
Bit rate : 640 kb/s
Channel(s) : 6 channels
Channel layout : L R C LFE Ls Rs
Sampling rate : 48.0 kHz
Frame rate : 31.250 FPS (1536 SPF)
Bit depth : 16 bits
Compression mode : Lossy
Stream size : 462 MiB (2%)
Title : 5.1 | 640
Language : English
Service kind : Complete Main
Default : No
Forced : No

Audio #3
ID : 4
Format : MLP FBA
Format/Info : Meridian Lossless Packing FBA
Commercial name : Dolby TrueHD
Codec ID : A_TRUEHD
Duration : 1 h 41 min
Bit rate mode : Variable
Bit rate : 3 203 kb/s
Maximum bit rate : 4 629 kb/s
Channel(s) : 6 channels
Channel layout : L R C LFE Ls Rs
Sampling rate : 48.0 kHz
Frame rate : 1 200.000 FPS (40 SPF)
Compression mode : Lossless
Stream size : 2.26 GiB (8%)
Title : TrueHD+Atmos 5.1 | 3203
Language : English
Default : No
Forced : No

Text #1
ID : 5
Format : UTF-8
Codec ID : S_TEXT/UTF8
Codec ID/Info : UTF-8 Plain Text
Duration : 1 h 33 min
Bit rate : 48 b/s
Count of elements : 1043
Stream size : 33.3 KiB (0%)
Title : Full
Language : English
Default : No
Forced : No

Text #2
ID : 6
Format : UTF-8
Codec ID : S_TEXT/UTF8
Codec ID/Info : UTF-8 Plain Text
Duration : 1 h 38 min
Bit rate : 53 b/s
Count of elements : 1206
Stream size : 38.4 KiB (0%)
Title : SDH
Language : English
Default : No
Forced : No

Menu
00:00:00.000 : en:Chapter 01
00:04:55.545 : en:Chapter 02
00:12:26.579 : en:Chapter 03
00:19:46.393 : en:Chapter 04
00:25:12.719 : en:Chapter 05
00:32:38.831 : en:Chapter 06
00:39:06.761 : en:Chapter 07
00:46:05.429 : en:Chapter 08
00:52:56.131 : en:Chapter 09
00:58:57.200 : en:Chapter 10
01:03:14.707 : en:Chapter 11
01:11:29.034 : en:Chapter 12
01:20:13.642 : en:Chapter 13
01:27:44.926 : en:Chapter 14
01:34:02.219 : en:Chapter 15
Скріншоти




Джерело: & eneyida.tv & інше
Особиста оцінка: 0 - не дивився


Золотий реліз (завантажене не впливає на рейтинг)
 Трекер:    Зареєстрований   

Завантажити / скачати фільм українською



відео для новачків



 Зареєстрований:   2021-01-12 17:37
 Розмір:   27.49 GB 
 Оцінка фільму:   9/10 (Голосів: 3)
   
Інші релізи
   Дрімленд / Dreamland (2019) 1080p Ukr/Eng | Sub Eng staf777  15 / 0   11.13 GB   2021-01-13 12:46 
   Дрімленд / Dreamland (2019) AVC Ukr/Eng | Sub Eng eneyida.tv  12 / 0   2 GB   2021-01-12 17:54 
   Дрімленд / Dreamland (2019) Ukr/Eng antik_2008  21 / 0   1.85 GB   2021-01-12 16:53 
   Дрімленд / Dreamland (2019) 720p Ukr/Eng | sub Eng antik_2008  9 / 0   5.97 GB   2021-01-11 02:37 
Anonymous 







2021-01-12 17:37  
Реліз готовий!
vlad_kyiv 
Новенький


З нами з: 01.01.15
Востаннє: 19.01.21
Повідомлень: 2

2021-01-17 19:32  
Тре подивитись
Ваш часовий пояс: GMT + 2 Години

Нова тема   Відповісти