Анастасія / Anastasia (1997) 1080p H.265 2xUkr/Eng | Sub Ukr/Eng

Нові коментарі

Нова тема   Відповісти
Автор Повідомлення
Anonymous 







2021-01-10 21:37  
Анастасія / Anastasia (1997) 1080p H.265 2xUkr/Eng | Sub Ukr/Eng

Анастасія / Anastasia (1997) 1080p H.265 2xUkr/Eng | Sub Ukr/Eng


Жанр: анімація, пригодницький, драма
Країна: США
Кінокомпанія: Twentieth Century Fox Film Corporation, Fox Animation Studios
Режисер: Дон Блас, Ґері Ґолдман
Ролі озвучують: Меґ Райан, Джон Кьюсак, Келсі Греммер, Крістофер Ллойд, Генк Азарія, Бернадетт Пітерс, Кірстен Данст, Анжела Ленсбері, Рік Джонс, Андреа Мартін

Сюжет:
Анастасія - донька останнього російського імператора Ніколая, знищеного зловісним Распутіним. Їй вдається врятуватися, дістатися разом з бабусею до переповненого вокзалу і ... загубитися в натовпі. Проходить десять років. Анастасія стала дорослою красунею і тепер хоче потрапити до Парижа. Чи зможе царівна здійснити задумане? Адже Распутін вже піднявся із своєї могили ...

Тривалість: 01:34:10
Якість:

Відео:
кодек: H.265 (HEVC)
розмір кадру: 1920 x 808
бітрейт: 4 680 кб/с
бітова глибина: 10 біт

Увага! Перед завантаженням переконайтесь, що ваш пристрій відтворення (та/або ПЗ) підтримує H.265 (HEVC)

Аудіо # 1:
мова: українська
озвучення: двоголосе закадрове
кодек: AC-3 5.1
бітрейт: 384 кб/с

Аудіо # 2:
мова: українська
озвучення: багатоголосе закадрове
кодек: AC-3 5.1
бітрейт: 384 кб/с

Аудіо # 3:
мова: англійська
озвучення: оригінал
кодек: AC-3 5.1
бітрейт: 448 кб/с

Аудіо # 4:
мова: англійська
озвучення: оригінал | Commentary by Director Don Bluth
кодек: AC-3 2.0
бітрейт: 224 кб/с

Субтитри # 1: (Full from Blu-Ray edited by w2958l)
мова: українська
тип: програмні (м'які)
формат: *.srt

Субтитри # 2: (Full)
мова: англійська
тип: програмні (м'які)
формат: *.srt


Інформація про файл
Код:
General
Unique ID                                : 931417837457354307843712009610543916 (0xB36271E4F2CA6B659797F108BD432C)
Complete name                            : Anastasia (1997) 1080p H.265 [2xUKR_ENG] [Hurtom].
Format                                   :
Format version                           : Version 4
File size                                : 4.03 GiB
Duration                                 : 1 h 34 min
Overall bit rate                         : 6 125 kb/s
Movie name                               : Анастасія / Anastasia (1997)
Encoded date                             : UTC 2021-01-10 19:30:01
Writing application                      : v20.0.0 ('I Am The Sun') 64-bit
Writing library                          : libebml v1.3.5 + v1.4.8
Cover                                    : Yes
Attachments                              : Cover.jpg

Video
ID                                       : 1
Format                                   : HEVC
Format/Info                              : High Efficiency Video Coding
Format profile                           : Main [email protected]@High
Codec ID                                 : V_MPEGH/ISO/HEVC
Duration                                 : 1 h 34 min
Bit rate                                 : 4 680 kb/s
Width                                    : 1 920 pixels
Height                                   : 808 pixels
Display aspect ratio                     : 2.40:1
Frame rate mode                          : Constant
Frame rate                               : 23.976 (23976/1000) FPS
Original frame rate                      : 23.976 (24000/1001) FPS
Color space                              : YUV
Chroma subsampling                       : 4:2:0
Bit depth                                : 10 bits
Bits/(Pixel*Frame)                       : 0.126
Stream size                              : 3.08 GiB (76%)
Title                                    : Анастасія / Anastasia (1997)
Writing library                          : x265 3.4+26-ga82c6c7a7:[Windows][GCC 10.2.1][64 bit] 10bit
Encoding settings                        : cpuid=1111039 / frame-threads=2 / numa-pools=6 / wpp / no-pmode / no-pme / no-psnr / no-ssim / log-level=2 / input-csp=1 / input-res=1920x808 / interlace=0 / total-frames=135480 / level-idc=41 / high-tier=1 / uhd-bd=0 / ref=5 / no-allow-non-conformance / no-repeat-headers / annexb / no-aud / no-hrd / info / hash=0 / no-temporal-layers / open-gop / min-keyint=23 / keyint=240 / gop-lookahead=0 / bframes=10 / b-adapt=2 / b-pyramid / bframe-bias=0 / rc-lookahead=60 / lookahead-slices=0 / scenecut=40 / hist-scenecut=0 / radl=0 / no-splice / no-intra-refresh / ctu=32 / min-cu-size=8 / rect / amp / max-tu-size=32 / tu-inter-depth=3 / tu-intra-depth=3 / limit-tu=4 / rdoq-level=2 / dynamic-rd=0.00 / no-ssim-rd / signhide / no-tskip / nr-intra=0 / nr-inter=0 / no-constrained-intra / strong-intra-smoothing / max-merge=5 / limit-refs=1 / limit-modes / me=3 / subme=7 / merange=57 / temporal-mvp / no-frame-dup / no-hme / weightp / weightb / no-analyze-src-pics / deblock=0:0 / no-sao / no-sao-non-deblock / rd=4 / selective-sao=0 / no-early-skip / rskip / no-fast-intra / no-tskip-fast / no-cu-lossless / b-intra / no-splitrd-skip / rdpenalty=0 / psy-rd=2.00 / psy-rdoq=1.00 / no-rd-refine / no-lossless / cbqpoffs=0 / crqpoffs=0 / rc=crf / crf=20.0 / qcomp=0.60 / qpstep=4 / stats-write=0 / stats-read=0 / vbv-maxrate=50000 / vbv-bufsize=50000 / vbv-init=0.9 / min-vbv-fullness=50.0 / max-vbv-fullness=80.0 / crf-max=0.0 / crf-min=0.0 / ipratio=1.40 / pbratio=1.30 / aq-mode=2 / aq-strength=1.00 / no-cutree / zone-count=0 / no-strict-cbr / qg-size=32 / no-rc-grain / qpmax=69 / qpmin=0 / no-const-vbv / sar=1 / overscan=0 / videoformat=5 / range=0 / colorprim=1 / transfer=1 / colormatrix=1 / chromaloc=0 / display-window=0 / cll=0,0 / min-luma=0 / max-luma=1023 / log2-max-poc-lsb=8 / vui-timing-info / vui-hrd-info / slices=1 / no-opt-qp-pps / no-opt-ref-list-length-pps / no-multi-pass-opt-rps / scenecut-bias=0.05 / hist-threshold=0.03 / no-opt-cu-delta-qp / no-aq-motion / no-hdr10 / no-hdr10-opt / no-dhdr10-opt / no-idr-recovery-sei / analysis-reuse-level=0 / analysis-save-reuse-level=0 / analysis-load-reuse-level=0 / scale-factor=0 / refine-intra=0 / refine-inter=0 / refine-mv=1 / refine-ctu-distortion=0 / no-limit-sao / ctu-info=0 / no-lowpass-dct / refine-analysis-type=0 / copy-pic=1 / max-ausize-factor=1.0 / no-dynamic-refine / no-single-sei / no-hevc-aq / no-svt / no-field / qp-adaptation-range=1.00 / no-scenecut-aware-qpconformance-window-offsets / right=0 / bottom=0 / decoder-max-rate=0 / no-vbv-live-multi-pass
Default                                  : Yes
Forced                                   : No
Color range                              : Limited
Color primaries                          : BT.709
Transfer characteristics                 : BT.709
Matrix coefficients                      : BT.709

Audio #1
ID                                       : 2
Format                                   : AC-3
Format/Info                              : Audio Coding 3
Commercial name                          : Dolby Digital
Codec ID                                 : A_AC3
Duration                                 : 1 h 34 min
Bit rate mode                            : Constant
Bit rate                                 : 384 kb/s
Channel(s)                               : 6 channels
Channel layout                           : L R C LFE Ls Rs
Sampling rate                            : 48.0 kHz
Frame rate                               : 31.250 FPS (1536 SPF)
Compression mode                         : Lossy
Stream size                              : 259 MiB (6%)
Title                                    : AC-3 / 5.1 Ch / 384 kbps / DVO / TET / Андрій Твердак і Юлія Перенчук
Language                                 : Ukrainian
Service kind                             : Complete Main
Default                                  : Yes
Forced                                   : Yes

Audio #2
ID                                       : 3
Format                                   : AC-3
Format/Info                              : Audio Coding 3
Commercial name                          : Dolby Digital
Codec ID                                 : A_AC3
Duration                                 : 1 h 34 min
Bit rate mode                            : Constant
Bit rate                                 : 384 kb/s
Channel(s)                               : 6 channels
Channel layout                           : L R C LFE Ls Rs
Sampling rate                            : 48.0 kHz
Frame rate                               : 31.250 FPS (1536 SPF)
Compression mode                         : Lossy
Stream size                              : 259 MiB (6%)
Title                                    : AC-3 / 5.1 Ch / 384 kbps / MVO / Новий Канал
Language                                 : Ukrainian
Service kind                             : Complete Main
Default                                  : No
Forced                                   : No

Audio #3
ID                                       : 4
Format                                   : AC-3
Format/Info                              : Audio Coding 3
Commercial name                          : Dolby Digital
Codec ID                                 : A_AC3
Duration                                 : 1 h 34 min
Bit rate mode                            : Constant
Bit rate                                 : 448 kb/s
Channel(s)                               : 6 channels
Channel layout                           : L R C LFE Ls Rs
Sampling rate                            : 48.0 kHz
Frame rate                               : 31.250 FPS (1536 SPF)
Compression mode                         : Lossy
Stream size                              : 302 MiB (7%)
Title                                    : AC-3 / 5.1 Ch / 448 kbps / Original
Language                                 : English
Service kind                             : Complete Main
Default                                  : No
Forced                                   : No

Audio #4
ID                                       : 5
Format                                   : AC-3
Format/Info                              : Audio Coding 3
Commercial name                          : Dolby Digital
Codec ID                                 : A_AC3
Duration                                 : 1 h 34 min
Bit rate mode                            : Constant
Bit rate                                 : 224 kb/s
Channel(s)                               : 2 channels
Channel layout                           : L R
Sampling rate                            : 48.0 kHz
Frame rate                               : 31.250 FPS (1536 SPF)
Compression mode                         : Lossy
Stream size                              : 151 MiB (4%)
Title                                    : AC-3 / 2.0 Ch / 224 kbps / Original / Commentary by Director Don Bluth
Language                                 : English
Service kind                             : Complete Main
Default                                  : No
Forced                                   : No

Text #1
ID                                       : 6
Format                                   : UTF-8
Codec ID                                 : S_TEXT/UTF8
Codec ID/Info                            : UTF-8 Plain Text
Duration                                 : 1 h 33 min
Bit rate                                 : 65 b/s
Count of elements                        : 1089
Stream size                              : 45.0 KiB (0%)
Title                                    : Full from Blu-Ray edited by w2958l
Language                                 : Ukrainian
Default                                  : No
Forced                                   : No

Text #2
ID                                       : 7
Format                                   : UTF-8
Codec ID                                 : S_TEXT/UTF8
Codec ID/Info                            : UTF-8 Plain Text
Duration                                 : 1 h 33 min
Bit rate                                 : 51 b/s
Count of elements                        : 1047
Stream size                              : 35.1 KiB (0%)
Title                                    : Full
Language                                 : English
Default                                  : No
Forced                                   : No

Menu
00:00:00.000                             : en:Imperial Russia
00:02:23.268                             : en:Once upon a December ( Prologue )
00:03:02.807                             : en:Rasputin
00:06:41.025                             : en:Main Title: A Rumor in St. Petersburg
00:10:10.484                             : en:Fork in the Road
00:12:40.050                             : en:Journey to the past
00:15:57.790                             : en:Dimitri and Vladimir's Plan
00:16:45.754                             : en:The old Place
00:18:07.169                             : en:Once upon a december
00:20:44.660                             : en:Dimitri and Anya
00:25:41.873                             : en:Bartok
00:27:06.041                             : en:The return of Rasputin
00:29:10.457                             : en:In the dark of the night
00:31:26.217                             : en:Bound for Paris
00:35:13.611                             : en:Runaway Train
00:38:08.369                             : en:Jump to safety
00:40:12.201                             : en:The long walk
00:42:38.347                             : en:Learn to do it
00:45:14.044                             : en:The Boat to paris
00:46:20.778                             : en:Learn to do it ( Waltz reprise )
00:49:32.302                             : en:Dangerous sleep
00:52:52.586                             : en:Rasputin Loses His Head
00:54:08.662                             : en:Sophie and the Dowager Empress Marie
00:58:29.631                             : en:Paris Holds the Key (To Your Heart)
01:01:50.790                             : en:The Ballet
01:04:59.020                             : en:Dimitri and the Empress
01:08:53.796                             : en:Anastasia
01:11:09.848                             : en:Once Upon a December (Reunion)
01:12:00.482                             : en:Royal Party Plans
01:13:05.381                             : en:Memories
01:14:20.789                             : en:A Change of Heart
01:17:04.578                             : en:Anastasia's Destiny
01:19:25.051                             : en:Rasputin Appears
01:22:17.682                             : en:Long Live the Romanovs
01:25:10.522                             : en:A Perfect Beginning
01:26:52.415                             : en:End Credits
Лог кодування
Код:
x265 [info]: frame I: 1191, Avg QP:17.62 kb/s: 18899.83
x265 [info]: frame P: 31083, Avg QP:19.27 kb/s: 9419.42
x265 [info]: frame B: 103206, Avg QP:21.44 kb/s: 3087.40
x265 [info]: Weighted P-Frames: Y:8.9% UV:5.3%
x265 [info]: Weighted B-Frames: Y:6.8% UV:3.3%
x265 [info]: consecutive B-frames: 7.9% 5.9% 7.3% 56.0% 6.6% 4.9% 1.5% 9.1% 0.6% 0.2% 0.2%
Світлини




Джерело: &
Особиста оцінка: 0 - не дивився


Срібний реліз (на рейтинг впливає 50% завантаженого)
 Трекер:    Зареєстрований   

Завантажити / скачати мультфільм українською



відео для новачків



 Зареєстрований:   2021-01-10 21:37
 Розмір:   4.03 GB 
 Оцінка мультфільму:   5.5/10 (Голосів: 2)
   
Інші релізи
   Анастасія / Anastasia (1997) Fien  3 / 0   541 MB   2016-07-01 20:47 
   Анастасія / Anastasia (1997) 720p 2хUkr/Eng | Sub Ukr/Eng Hurtomivets  3 / 0   4.04 GB   2011-12-05 16:21 
   Анастасія / Anastasia (1997) 2xUkr, Eng | Sub Eng rooster  1 / 0   2.19 GB   2011-04-01 22:08 
   Анастасія / Anastasia (1997) 1080p 2xUkr/Eng | Sub Eng rooster  3 / 0   7.81 GB   2011-04-01 22:07 
Ваш часовий пояс: GMT + 2 Години

Нова тема   Відповісти