Країна Голлівуд / Hollywoodland (2006) 1080p Ukr/Eng | sub Eng/Multi

Нові коментарі

Нова тема   Відповісти
Автор Повідомлення
Anonymous 







2021-01-10 15:05  
Країна Голлівуд / Hollywoodland (2006) 1080p Ukr/Eng | sub Eng/Multi

Оригінальний постер
Країна Голлівуд / Hollywoodland (2006) 1080p Ukr/Eng | sub Eng/Multi


Жанр: біографічний, кримінальний, драма
Країна: США



Кінокомпанія: Focus Features, Miramax, Back Lot Pictures
Режисер: Аллен Култер
Актори: Едрієн Броді, Даян Лейн, Бен Аффлек, Боб Госкінс, Робін Танні, Кетлін Робертсон, Лоїс Сміт, Філліп МакКензі, Ларрі Седар, Ерік Калдор

Сюжет:
Актор Джордж Рівз, що став знаменитим завдяки головній ролі в телесеріалі про Супермена, знайдений мертвим у власному будинку. Його мати не вірить, що це самогубство і наймає приватного детектива Луїса Сімо. Сімо з'ясовує, що Рівз був коханцем дружини директора кінокомпанії MGM і привертає увагу преси до дивним обставинам загибелі актора. У ході фільму висувається кілька версій: нещасний випадок, вбивство на замовлення, самогубство.


Тривалість: 02:06:10
Якість:
Відео:
кодек:
розмір кадру: 1920 х 1040
бітрейт: 13 Mб/с

Аудіо # 1:
мова: українська
переклад: багатоголосий закадровий
кодек: 2.0 (стерео)
бітрейт: 192 кб/с

Аудіо # 2:
мова: англійська
переклад: оригінал
кодек: 5.1
бітрейт: 640 кб/с

Субтитри:
мова: англійська, іспанська, французька, нідерландська, норвезька, шведська, фінська
тип: програмні (м'які)
формат: *.srt
Info
Код:
General
Unique ID                                : 267588485549100189716306876669756937766 (0xC94FAAEEFDE1B05FF9145525BE879626)
Complete name                            : Hollywoodland (2006) 1080p [Ukr_Eng] [Hurtom].
Format                                   :
Format version                           : Version 4
File size                                : 12.2 GiB
Duration                                 : 2 h 6 min
Overall bit rate                         : 13.8 Mb/s
Movie name                               : Країна Голлівуд (2006)
Encoded date                             : UTC 2021-01-10 12:22:40
Writing application                      : v52.0.0 ('Secret For The Mad') 64-bit
Writing library                          : libebml v1.4.1 + v1.6.2
Cover                                    : Yes
Attachments                              : cover.jpg

Video
ID                                       : 1
Format                                   : AVC
Format/Info                              : Advanced Video Codec
Format profile                           : [email protected]
Format settings                          : CABAC / 8 Ref Frames
Format settings, CABAC                   : Yes
Format settings, Reference frames        : 8 frames
Codec ID                                 : V_MPEG4/ISO/AVC
Duration                                 : 2 h 6 min
Bit rate                                 : 13.0 Mb/s
Width                                    : 1 920 pixels
Height                                   : 1 040 pixels
Display aspect ratio                     : 1.85:1
Frame rate mode                          : Constant
Frame rate                               : 23.976 FPS
Color space                              : YUV
Chroma subsampling                       : 4:2:0
Bit depth                                : 8 bits
Scan type                                : Progressive
Bits/(Pixel*Frame)                       : 0.271
Stream size                              : 11.4 GiB (94%)
Writing library                          : core 54 svn-650
Encoding settings                        : cabac=1 / ref=5 / deblock=1:-3:-2 / analyse=0x3:0x133 / me=umh / subme=6 / brdo=0 / mixed_ref=0 / me_range=12 / chroma_me=1 / trellis=1 / 8x8dct=1 / cqm=2 / deadzone=21,11 / chroma_qp_offset=0 / threads=2 / nr=0 / decimate=1 / mbaff=0 / bframes=3 / b_pyramid=1 / b_adapt=1 / b_bias=0 / direct=3 / wpredb=1 / bime=0 / keyint=250 / keyint_min=25 / scenecut=40(pre) / rc=2pass / bitrate=12973 / ratetol=1.0 / rceq='blurCplx^(1-qComp)' / qcomp=0.60 / qpmin=10 / qpmax=51 / qpstep=4 / cplxblur=20.0 / qblur=0.5 / ip_ratio=1.40 / pb_ratio=1.30
Language                                 : English
Default                                  : Yes
Forced                                   : No

Audio #1
ID                                       : 2
Format                                   : AC-3
Format/Info                              : Audio Coding 3
Commercial name                          : Dolby Digital
Codec ID                                 : A_AC3
Duration                                 : 2 h 6 min
Bit rate mode                            : Constant
Bit rate                                 : 192 kb/s
Channel(s)                               : 2 channels
Channel layout                           : L R
Sampling rate                            : 48.0 kHz
Frame rate                               : 31.250 FPS (1536 SPF)
Compression mode                         : Lossy
Stream size                              : 173 MiB (1%)
Language                                 : Ukrainian
Service kind                             : Complete Main
Default                                  : Yes
Forced                                   : Yes

Audio #2
ID                                       : 3
Format                                   : AC-3
Format/Info                              : Audio Coding 3
Commercial name                          : Dolby Digital
Codec ID                                 : A_AC3
Duration                                 : 2 h 6 min
Bit rate mode                            : Constant
Bit rate                                 : 640 kb/s
Channel(s)                               : 6 channels
Channel layout                           : L R C LFE Ls Rs
Sampling rate                            : 48.0 kHz
Frame rate                               : 31.250 FPS (1536 SPF)
Compression mode                         : Lossy
Stream size                              : 578 MiB (5%)
Language                                 : English
Service kind                             : Complete Main
Default                                  : No
Forced                                   : No

Text #1
ID                                       : 4
Format                                   : UTF-8
Codec ID                                 : S_TEXT/UTF8
Codec ID/Info                            : UTF-8 Plain Text
Duration                                 : 1 h 52 min
Bit rate                                 : 56 b/s
Count of elements                        : 1468
Stream size                              : 47.1 KiB (0%)
Language                                 : English
Default                                  : Yes
Forced                                   : No

Text #2
ID                                       : 5
Format                                   : UTF-8
Codec ID                                 : S_TEXT/UTF8
Codec ID/Info                            : UTF-8 Plain Text
Duration                                 : 1 h 52 min
Bit rate                                 : 61 b/s
Count of elements                        : 1348
Stream size                              : 50.6 KiB (0%)
Language                                 : Spanish
Default                                  : No
Forced                                   : No

Text #3
ID                                       : 6
Format                                   : UTF-8
Codec ID                                 : S_TEXT/UTF8
Codec ID/Info                            : UTF-8 Plain Text
Duration                                 : 1 h 52 min
Bit rate                                 : 46 b/s
Count of elements                        : 1397
Stream size                              : 38.6 KiB (0%)
Language                                 : French
Default                                  : No
Forced                                   : No

Text #4
ID                                       : 7
Format                                   : UTF-8
Codec ID                                 : S_TEXT/UTF8
Codec ID/Info                            : UTF-8 Plain Text
Duration                                 : 1 h 52 min
Bit rate                                 : 44 b/s
Count of elements                        : 985
Stream size                              : 37.2 KiB (0%)
Language                                 : Dutch
Default                                  : No
Forced                                   : No

Text #5
ID                                       : 8
Format                                   : UTF-8
Codec ID                                 : S_TEXT/UTF8
Codec ID/Info                            : UTF-8 Plain Text
Duration                                 : 1 h 52 min
Bit rate                                 : 55 b/s
Count of elements                        : 1391
Stream size                              : 46.0 KiB (0%)
Language                                 : Norwegian
Default                                  : No
Forced                                   : No

Text #6
ID                                       : 9
Format                                   : UTF-8
Codec ID                                 : S_TEXT/UTF8
Codec ID/Info                            : UTF-8 Plain Text
Duration                                 : 1 h 52 min
Bit rate                                 : 44 b/s
Count of elements                        : 1129
Stream size                              : 37.1 KiB (0%)
Language                                 : Swedish
Default                                  : No
Forced                                   : No

Text #7
ID                                       : 10
Format                                   : UTF-8
Codec ID                                 : S_TEXT/UTF8
Codec ID/Info                            : UTF-8 Plain Text
Duration                                 : 1 h 52 min
Bit rate                                 : 54 b/s
Count of elements                        : 1390
Stream size                              : 44.8 KiB (0%)
Language                                 : Finnish
Default                                  : No
Forced                                   : No

Скріншоти




Джерело:
За український постер подяка пану -Star-Lord-


 Трекер:    Зареєстрований   

Завантажити / скачати фільм українською



відео для новачків



 Зареєстрований:   2021-01-10 15:05
 Розмір:   12.17 GB 
 Оцінка фільму:   10/10 (Голосів: 1)
   
Інші релізи
-Star-Lord- 
VIP


З нами з: 09.08.18
Востаннє: 26.01.21
Повідомлень: 2310

2021-01-10 15:56  
Anonymous 







2021-01-10 16:07  
-Star-Lord-
дякую, але це не укр. постер

-Star-Lord- 
VIP


З нами з: 09.08.18
Востаннє: 26.01.21
Повідомлень: 2310

2021-01-10 22:18  
Anonymous
Поправив посилання в попередньому пості, тепер укр.

Ваш часовий пояс: GMT + 2 Години

Нова тема   Відповісти