Нічний шопінг / Late Night Shopping (2001) 720p Eng | sub Ukr

Нові коментарі

Нова тема   Відповісти
Автор Повідомлення
Anonymous 







2021-01-10 04:33  
Нічний шопінг / Late Night Shopping (2001) 720p Eng | sub Ukr

Нічний шопінг / Late Night Shopping (2001) 720p Eng | sub Ukr


Жанр: комедія
Країна: Велика Британія, Німеччина



Кінокомпанія: FilmFour, Glasgow Film Office, Ideal World Productions
Режисер: Сауль Мецштейн
Актори: Люк Де Вулфсон, Джеймс Ленс, Кейт Ешфілд, Енцо Чиленті

Сюжет:
Четверо друзів Шон, Вінсент, Ленні та Джоді опинились у глухому куті. Потрапивши в сутінковий світ постійної роботи в нічну зміну, вони разом зависають у місцевому кафе, п'ють каву та розважаються, спостерігаючи за незмінним успіхом Вінсента у спокушуванні жінок. Здавалося б, жодних перспектив змін... доки Вінсент випадково не переспить із дівчиною Шона.

– Приз Європейської конфедерації художнього кіно (програма «Панорама») Берлінський кінофестиваль, 2001
– Номінація на Премію імені Карла Формана за найбільш перспективний дебют, BAFTA, 2001


Тривалість: 01:27:49
Якість:
Відео:
кодек:
розмір кадру: 1280 х 720
бітрейт: 3490 кб/с

Аудіо:
мова: англійська
переклад: оригінал
кодек: 2.0
бітрейт: 192 кб/с

Субтитри:
мова: українська
тип: програмні (м'які)
формат: *.srt
Info
Код:
General
Unique ID                                : 250208762411443657032799553977468109449 (0xBC3C746CF640EE1D71605F610DDCC289)
Complete name                            : Late Night Shopping (2001) 720p [Eng_sub_Ukr] [Hurtom].
Format                                   :
Format version                           : Version 4
File size                                : 2.26 GiB
Duration                                 : 1 h 27 min
Overall bit rate                         : 3 685 kb/s
Movie name                               : Нічний шопінг (2001)
Encoded date                             : UTC 2021-01-10 00:58:18
Writing application                      : v52.0.0 ('Secret For The Mad') 64-bit
Writing library                          : libebml v1.4.1 + v1.6.2
Cover                                    : Yes
Attachments                              : cover.jpg

Video
ID                                       : 1
Format                                   : AVC
Format/Info                              : Advanced Video Codec
Format profile                           : [email protected]
Format settings                          : CABAC / 4 Ref Frames
Format settings, CABAC                   : Yes
Format settings, Reference frames        : 4 frames
Codec ID                                 : V_MPEG4/ISO/AVC
Duration                                 : 1 h 27 min
Bit rate                                 : 3 490 kb/s
Width                                    : 1 280 pixels
Height                                   : 720 pixels
Display aspect ratio                     : 16:9
Frame rate mode                          : Constant
Frame rate                               : 25.000 FPS
Color space                              : YUV
Chroma subsampling                       : 4:2:0
Bit depth                                : 8 bits
Scan type                                : Progressive
Bits/(Pixel*Frame)                       : 0.151
Stream size                              : 2.14 GiB (95%)
Language                                 : English
Default                                  : Yes
Forced                                   : No
Color range                              : Limited
Color primaries                          : BT.709
Transfer characteristics                 : BT.709
Matrix coefficients                      : BT.709

Audio
ID                                       : 2
Format                                   : LC
Format/Info                              : Advanced Audio Codec Low Complexity
Codec ID                                 : A_AAC-2
Duration                                 : 1 h 27 min
Bit rate                                 : 192 kb/s
Channel(s)                               : 2 channels
Channel layout                           : L R
Sampling rate                            : 48.0 kHz
Frame rate                               : 46.875 FPS (1024 SPF)
Compression mode                         : Lossy
Delay relative to video                  : -80 ms
Stream size                              : 121 MiB (5%)
Language                                 : English
Default                                  : Yes
Forced                                   : No

Text
ID                                       : 3
Format                                   : UTF-8
Codec ID                                 : S_TEXT/UTF8
Codec ID/Info                            : UTF-8 Plain Text
Duration                                 : 1 h 26 min
Bit rate                                 : 123 b/s
Count of elements                        : 1276
Stream size                              : 78.2 KiB (0%)
Language                                 : Ukrainian
Default                                  : Yes
Forced                                   : Yes

Скріншоти




Джерело: і НОВЕ БРИТАНСЬКЕ КІНО


Срібний реліз (на рейтинг впливає 50% завантаженого)
 Трекер:    Зареєстрований   

Завантажити / скачати фільм українською



відео для новачків



 Зареєстрований:   2021-01-10 04:33
 Розмір:   2.26 GB 
 Оцінка фільму:   10/10 (Голосів: 2)
   
Ваш часовий пояс: GMT + 2 Години

Нова тема   Відповісти