Воїн / The Warrior (2001) 1080p Hin | Sub Ukr/Eng

Нові коментарі

Нова тема   Відповісти
Автор Повідомлення
Anonymous 







2021-01-10 03:02  
Воїн / The Warrior (2001) 1080p Hin | Sub Ukr/Eng

Воїн / The Warrior (2001) 1080p Hin | Sub Ukr/Eng
Альтернативні постери:





Жанр: пригодницький, драма
Країна: Велика Британія, Франція, Німеччина, Індія, США

Дві премії британської академії (BAFTA): імені Олександра Корди за найвидатніший британський фільм року та імені Карла Формана найперспективнішому дебютанту та премія кінофестивалю у Сан-Себастьяні за найкращу робота оператора



Кінокомпанія: FilmFour, Senator Film Produktion, British Screen Productions, Les Productions Lazennec, The Bureau, Film Services India, Equinoxe
Режисер: Азіф Кападіа / Asif Kapadia
Актори: Ірфан Кхан, Пуру Чіббер, Айно Аннуддін

Сюжет:
Колись він був керівником охорони у жорстокого землевласника, але за містичних обставин зрікся свого кривавого ремесла. Відклавши меч, чоловік поклявся більше ніколи нікого не вбивати і вирішив повернутися на батьківщину. Розлючений господар направляє слідами воїна загін найманих вбивць…
Офіційний трейлер:

Рейтинг MPAA: R - особам до 17 років обов'язкова присутність батьків або дорослого опікуна
Вікова категорія: 16+
Тривалість: 01:26:32
Якість: 1080p
Відео:
кодек:
розмір кадру: 1920х1080
бітрейт: 3494 кб/с

Аудіо:
мова: хінді
переклад: оригінал
кодек: 2.0
бітрейт: 192 кб/с

Субтитри # 1:
мова: українська
тип: вбудовані (жорсткі)
переклад: офіційний

Субтитри # 2:
мова: англійська
тип: вбудовані (жорсткі)
Info
Код:
Complete name               : The Warrior (2001) [Hindi sub.Ukr,Eng] 1080p [Hurtom].
Format                      :
Format version              : Version 4
File size                   : 2.23 GiB
Duration                    : 1 h 26 min
Overall bit rate            : 3 688 kb/s
Movie name                  : Воїн / The Warrior (2001) [Hindi sub.Ukr,Eng] 1080p [Hurtom]
Encoded date                : UTC 2021-01-09 22:51:56
Writing application         : v52.0.0 ('Secret For The Mad') 64-bit
Writing library             : libebml v1.4.1 + v1.6.2
Cover                       : Yes
Attachments                 : cover.jpg

Video
ID                          : 1
Format                      : AVC
Format/Info                 : Advanced Video Codec
Format profile              : [email protected]
Format settings             : CABAC / 4 Ref Frames
Format settings, CABAC      : Yes
Format settings, Reference  : 4 frames
Codec ID                    : V_MPEG4/ISO/AVC
Duration                    : 1 h 26 min
Bit rate                    : 3 493 kb/s
Width                       : 1 920 pixels
Height                      : 1 080 pixels
Display aspect ratio        : 16:9
Frame rate mode             : Constant
Frame rate                  : 24.000 FPS
Color space                 : YUV
Chroma subsampling          : 4:2:0
Bit depth                   : 8 bits
Scan type                   : Progressive
Bits/(Pixel*Frame)          : 0.070
Stream size                 : 2.11 GiB (95%)
Title                       : Воїн / The Warrior (2001) 1080p
Language                    : English
Default                     : Yes
Forced                      : No
Color range                 : Limited
Color primaries             : BT.709
Transfer characteristics    : BT.709
Matrix coefficients         : BT.709

Audio
ID                          : 2
Format                      : LC
Format/Info                 : Advanced Audio Codec Low Complexity
Codec ID                    : A_AAC-2
Duration                    : 1 h 26 min
Bit rate                    : 192 kb/s
Channel(s)                  : 2 channels
Channel layout              : L R
Sampling rate               : 48.0 kHz
Frame rate                  : 46.875 FPS (1024 SPF)
Compression mode            : Lossy
Delay relative to video     : -83 ms
Stream size                 : 119 MiB (5%)
Language                    : Hindi
Default                     : Yes
Forced                      : No



Джерело:


Срібний реліз (на рейтинг впливає 50% завантаженого)
 Трекер:    Зареєстрований   

Завантажити / скачати фільм українською



відео для новачків



 Зареєстрований:   2021-01-10 03:02
 Розмір:   2.23 GB 
 Оцінка фільму:   10/10 (Голосів: 7)
 ЗАЛИШАЙТЕСЬ ЯКОМОГА ДОВШЕ НА РОЗДАЧІ! ЗАВАНТАЖИВ САМ - ДАЙ ЗАВАНТАЖИТИ ІНШИМ!
   
Vitt 
Поважний учасник


З нами з: 17.01.11
Востаннє: 22.04.21
Повідомлень: 231

2021-01-10 22:12  
В списку країн Індію все-таки варто б було поставити на перше місце :)
vitbol 
Свій


З нами з: 05.12.10
Востаннє: 17.04.21
Повідомлень: 53

2021-01-18 23:43  
Супер, тільки хотів в к-цапській озвучці дивитися. Краще вже з укр. субтитрами)
Ваш часовий пояс: GMT + 2 Години

Нова тема   Відповісти