Душа / Soul (2020) 720p 2xUkr/Eng | Sub Eng

Нові коментарі

Нова тема   Відповісти
Автор Повідомлення
Anonymous 







2021-01-09 22:04  
Душа / Soul (2020) 720p 2xUkr/Eng | Sub Eng


Жанр: драма, пригодницький, сімейний
Країна: США



Кінокомпанія: Walt Disney Pictures, Pixar Animation Studios
Режисери: Піт Доктер, Кемп Паверс
Актори: Джеймi Фокс, Тіна Фей, Давід Діґґс, Філісія Рашад, Анджела Бассетт, Рейчел Гаус, Аліса Браґа, Річард Айоаде
Джун Скуіб, Вес Стьюді та інші

Сюжет:
Анімація «Душа» від Disney та Pixar знайомить нас із Джо Ґарднером, викладачем музики в середній школі, який щиро любить грати джаз. І одного разу йому таки вдається домовитись про виступ на сцені джазового клубу. Однак дорогою додому у результаті нещасного випадку душа Джо відділяється від тіла і переноситься до місця, у якому душі розвиваються перед тим, як відправитись до новонародженої дитини. І Джо доводиться задуматись над тим, що значить – мати душу.


Тривалість: 01:40:31
Якість: 720p [DSNP]

Відео:
кодек:
розмір кадру: 1280 x 720
бітрейт: 3348 кб/с

Аудіо # 1:
мова: українська
озвучення: багатоголосе закадрове | Dniprofilm
кодек: 5.1
бітрейт: 384 кб/с

Аудіо # 2:
мова: українська
озвучення: професійне дубльоване
кодек: 2.0
бітрейт: 192 кб/с

Аудіо # 3:
мова: англійська
озвучення: оригінал
кодек: E- 5.1
бітрейт: 768 кб/с

Субтитри # 1-2:
мова: англійська (повні, SDH)
тип: програмні (м'які)
формат: *.srt
Info
Код:
Complete name               : Soul (2020) [2xUkr,Eng sub.Eng] 720p [Hurtom].
Format                      :
Format version              : Version 4
File size                   : 3.30 GiB
Duration                    : 1 h 40 min
Overall bit rate mode       : Variable
Overall bit rate            : 4 693 kb/s
Movie name                  : Душа / Soul (2020) [2xUkr,Eng sub.Eng] 720p [Hurtom]
Encoded date                : UTC 2021-01-15 15:05:32
Writing application         : v52.0.0 ('Secret For The Mad') 64-bit
Writing library             : libebml v1.4.1 + v1.6.2
Cover                       : Yes
Attachments                 : cover.jpg

Video
ID                          : 1
Format                      : AVC
Format/Info                 : Advanced Video Codec
Format profile              : [email protected]
Format settings             : CABAC / 4 Ref Frames
Format settings, CABAC      : Yes
Format settings, Reference  : 4 frames
Codec ID                    : V_MPEG4/ISO/AVC
Duration                    : 1 h 40 min
Bit rate mode               : Variable
Bit rate                    : 3 348 kb/s
Maximum bit rate            : 6 375 kb/s
Width                       : 1 280 pixels
Height                      : 720 pixels
Display aspect ratio        : 16:9
Frame rate mode             : Constant
Frame rate                  : 23.976 (24000/1001) FPS
Color space                 : YUV
Chroma subsampling          : 4:2:0
Bit depth                   : 8 bits
Scan type                   : Progressive
Bits/(Pixel*Frame)          : 0.152
Stream size                 : 2.35 GiB (71%)
Title                       : Душа / Soul (2020) 720p [DSNP]
Language                    : English
Default                     : Yes
Forced                      : No
Color range                 : Limited
Color primaries             : BT.709
Transfer characteristics    : BT.709
Matrix coefficients         : BT.709

Audio #1
ID                          : 2
Format                      : AC-3
Format/Info                 : Audio Coding 3
Commercial name             : Dolby Digital
Codec ID                    : A_AC3
Duration                    : 1 h 40 min
Bit rate mode               : Constant
Bit rate                    : 384 kb/s
Channel(s)                  : 6 channels
Channel layout              : L R C LFE Ls Rs
Sampling rate               : 48.0 kHz
Frame rate                  : 31.250 FPS (1536 SPF)
Compression mode            : Lossy
Stream size                 : 276 MiB (8%)
Title                       : MVO [Dniprofilm/HDRezka], 5.1 384 Kbps
Language                    : Ukrainian
Service kind                : Complete Main
Default                     : Yes
Forced                      : Yes

Audio #2
ID                          : 3
Format                      : AC-3
Format/Info                 : Audio Coding 3
Commercial name             : Dolby Digital
Codec ID                    : A_AC3
Duration                    : 1 h 40 min
Bit rate mode               : Constant
Bit rate                    : 192 kb/s
Channel(s)                  : 2 channels
Channel layout              : L R
Sampling rate               : 48.0 kHz
Frame rate                  : 31.250 FPS (1536 SPF)
Compression mode            : Lossy
Stream size                 : 138 MiB (4%)
Title                       : Dub [Line], 2.0 192 Kbps
Language                    : Ukrainian
Service kind                : Complete Main
Default                     : No
Forced                      : No

Audio #3
ID                          : 4
Format                      : E-AC-3 JOC
Format/Info                 : Enhanced AC-3 with Joint Object Coding
Commercial name             : Dolby Digital Plus with Dolby Atmos
Codec ID                    : A_EAC3
Duration                    : 1 h 40 min
Bit rate mode               : Constant
Bit rate                    : 768 kb/s
Channel(s)                  : 6 channels
Channel layout              : L R C LFE Ls Rs
Sampling rate               : 48.0 kHz
Frame rate                  : 31.250 FPS (1536 SPF)
Compression mode            : Lossy
Stream size                 : 552 MiB (16%)
Title                       : Original, E- 5.1 768 Kbps
Language                    : English
Service kind                : Complete Main
Default                     : No
Forced                      : No
Complexity index            : 16
Number of dynamic objects   : 15
Bed channel count           : 1 channel
Bed channel configuration   : LFE

Text #1
ID                          : 5
Format                      : UTF-8
Codec ID                    : S_TEXT/UTF8
Codec ID/Info               : UTF-8 Plain Text
Duration                    : 1 h 39 min
Bit rate                    : 68 b/s
Count of elements           : 1599
Stream size                 : 49.9 KiB (0%)
Title                       : Eng Full
Language                    : English
Default                     : No
Forced                      : No

Text #2
ID                          : 6
Format                      : UTF-8
Codec ID                    : S_TEXT/UTF8
Codec ID/Info               : UTF-8 Plain Text
Duration                    : 1 h 40 min
Bit rate                    : 78 b/s
Count of elements           : 1855
Stream size                 : 57.7 KiB (0%)
Title                       : Eng SDH
Language                    : English
Default                     : No
Forced                      : No



Джерело: & & Еneyida.tv

15.01.2021 реліз оновлено - додано озвучення від Dniprofilm


Авторський реліз (завантажувати можна без реєстрації)
 Трекер:    Зареєстрований   

Завантажити / скачати мультфільм українською



відео для новачків



 Зареєстрований:   2021-01-15 17:47
 Розмір:   3.3 GB 
 Оцінка мультфільму:   9.6/10 (Голосів: 55)
 ЗАЛИШАЙТЕСЬ ЯКОМОГА ДОВШЕ НА РОЗДАЧІ! ЗАВАНТАЖИВ САМ - ДАЙ ЗАВАНТАЖИТИ ІНШИМ!
   
Інші релізи
   Душа / Soul (2020) 1080p 2xUkr/Eng | sub Eng BASTERD-94  242 / 0   5.65 GB   2021-01-16 13:33 
   Душа / Soul (2020) 2xUkr/Eng BASTERD-94  193 / 0   1.73 GB   2021-01-16 12:51 
   Душа / Soul (2020) 4K 2160p HDR H.265 2xUkr/Eng | sub Eng u4col  88 / 2   16.58 GB   2021-01-15 19:50 
   Душа / Soul (2020) AVC Ukr/Eng | sub Eng eneyida.tv  303 / 1   2.13 GB   2021-01-09 22:02 
Anonymous 







2021-01-09 23:38  
Реліз на роздачі, звук Line з сусіднього avc-реліза - якісніший, ніж в avi та 1080 релізах (там з онлайну з вбитими частотами).
oleh9118 
Новенький


З нами з: 28.09.19
Востаннє: 03.03.21
Повідомлень: 1

2021-01-10 21:03  
у кого класна звукова не качайте, постійний гул...(
$apien$ 
Частий відвідувач


З нами з: 27.11.16
Востаннє: 03.03.21
Повідомлень: 44

2021-01-12 20:48  
oleh9118
У мультику про крудсів щось подібне спостерігалось ((

Anonymous 







2021-01-12 20:50  
oleh9118 написано:
у кого класна звукова не качайте, постійний гул...(

переглянув на телеку - жодного дискомфорту не відчув, якби не написали про нього тут - навіть не здогадався б. Решта учасників перегляду теж нічого не почули дискомфортного.

leicheman 
Відео Гуртом - фільмокрай
Відео Гуртом - фільмокрай


З нами з: 03.07.14
Востаннє: 03.03.21
Повідомлень: 5937

2021-01-14 20:33  
del
Anonymous 







2021-01-15 17:48  
Реліз оновлено - додано озвучення від Dniprofilm
Lil`Antoni 
VIP


З нами з: 25.02.12
Востаннє: 02.03.21
Повідомлень: 890

2021-02-05 12:19  
Випадково побачив що в кінотеатрі ще йде, то згадав про нього.
Дякую

Та відомо чи буде ліцензія ?

qarty1 
VIP


З нами з: 01.11.09
Востаннє: 27.02.21
Повідомлень: 411

2021-02-06 12:00  
доречі в мультику 29хв.17секунді стікери Українською Вітаю: Микола Петренко і Марічка Г...не зрозумів прізвище
Ваш часовий пояс: GMT + 2 Години

Нова тема   Відповісти