16 кварталів / 16 Blocks (2006) Remux 1080p 3xUkr/Eng | Sub Eng

Нові коментарі

Нова тема   Відповісти
Автор Повідомлення
MediumHD 
Частий відвідувач


З нами з: 24.04.20
Востаннє: 21.01.21
Повідомлень: 41

2021-01-09 14:44  
16 кварталів / 16 Blocks (2006) Remux 1080p 3xUkr/Eng | Sub Eng

16 кварталів / 16 Blocks (2006) Remux 1080p 3xUkr/Eng | Sub Eng


Жанр: бойовик, драма, трилер, кримінальний
Країна: США, Німеччина



Кінокомпанія: Alcon Entertainment, Millennium Films, Emmett/Furla Films, Cheyenne Enterprises, Equity Pictures Medienfonds GmbH & Co. KG III, Nu Image Entertainment GmbH, Donners' Company
Режисер: Річард Доннер / Richard Donner
Актори: Брюс Вілліс / Bruce Willis, Мос Деф / Mos Def, Девід Морс / David Morse, Дженна Стерн / Jenna Stern, Кейсі Сендер / Casey Sander, Сілк Козарт / Cylk Cozart

Сюжет:
16 кварталів - це відстань від поліцейської ділянки до будівлі суду в одному з районів Нью-Йорка. 16 кварталів повинні подолати поліцейський і свідок, якому належить давати свідчення в суді.
Поліцейський Джек Мослі - білий, немолодий, втомлений, мовчазний, питущий, майже продажний. Але він все-таки ще зберіг у собі і залишки самоповаги, і рештки професійного кодексу честі. Свідок Едді Банкер - повна протилежність Джека: чорношкірий шустрий базіка, який і сам не радий тій колотнечі, що влаштувала йому доля.
Джек і Еді повинні пройти і проїхати всього 16 міських кварталів, але яким довгим, яким небезпечним, яким смертоносним виявиться цей шлях!


Тривалість: 01:37:26
Якість:
Відео:
кодек:
розмір кадру: 1920 х 1080
бітрейт: 20 Мб/с

Аудіо # 1:
мова: українська
переклад: багатоголосий закадровий
кодек: 2.0
бітрейт: 192 Кб/с

Аудіо # 2:
мова: українська
переклад: багатоголосий закадровий
кодек: 2.0
бітрейт: 160 Кб/с

Аудіо # 3:
мова: українська
переклад: багатоголосий закадровий
кодек: 2.0
бітрейт: 192 Кб/с

Аудіо # 4:
мова: англійська
переклад: оригінал
кодек: 5.1
бітрейт: 640 Кб/с

Аудіо # 5:
мова: англійська
переклад: оригінал
кодек: -HD MA 5.1
бітрейт: 1990 Кб/с

Субтитри :
мова: англійська
тип: програмні (м'які)
формат: *.srt
Info
Format :
Format version : Version 4
File size : 15.7 GiB
Duration : 1 h 37 min
Overall bit rate mode : Variable
Overall bit rate : 23.1 Mb/s
Movie name : 16 кварталів (16 Blocks) 2006 Remux (1080p) [Hurtom]
Encoded date : UTC 2021-01-07 12:58:06
Writing application : v7.8.0 ('River Man') 32bit built on Mar 27 2015 16:18:02
Writing library : libebml v1.3.1 + v1.4.2
Cover : Yes
Attachments : Cover.jpg

Video
ID : 1
Format : AVC
Format/Info : Advanced Video Codec
Format profile : [email protected]
Format settings : CABAC / 4 Ref Frames
Format settings, CABAC : Yes
Format settings, Reference : 4 frames
Format settings, GOP : M=3, N=15
Codec ID : V_MPEG4/ISO/AVC
Duration : 1 h 37 min
Bit rate mode : Variable
Bit rate : 20.0 Mb/s
Maximum bit rate : 24.0 Mb/s
Width : 1 920 pixels
Height : 1 080 pixels
Display aspect ratio : 16:9
Frame rate mode : Constant
Frame rate : 25.000 FPS
Standard : PAL
Color space : YUV
Chroma subsampling : 4:2:0
Bit depth : 8 bits
Scan type : MBAFF
Bits/(Pixel*Frame) : 0.385
Stream size : 13.6 GiB (86%)
Title : 16 кварталів (16 Blocks)
Language : Ukrainian
Default : Yes
Forced : No
Color range : Limited
Color primaries : BT.709
Transfer characteristics : BT.709
Matrix coefficients : BT.709

Audio #1
ID : 2
Format : AC-3
Format/Info : Audio Coding 3
Commercial name : Dolby Digital
Codec ID : A_AC3
Duration : 1 h 37 min
Bit rate mode : Constant
Bit rate : 192 kb/s
Channel(s) : 2 channels
Channel layout : L R
Sampling rate : 48.0 kHz
Frame rate : 31.250 FPS (1536 SPF)
Compression mode : Lossy
Stream size : 134 MiB (1%)
Title : 1+1
Language : Ukrainian
Service kind : Complete Main
Default : No
Forced : No

Audio #2
ID : 3
Format : AC-3
Format/Info : Audio Coding 3
Commercial name : Dolby Digital
Codec ID : A_AC3
Duration : 1 h 37 min
Bit rate mode : Constant
Bit rate : 160 kb/s
Channel(s) : 2 channels
Channel layout : L R
Sampling rate : 44.1 kHz
Frame rate : 28.711 FPS (1536 SPF)
Compression mode : Lossy
Stream size : 112 MiB (1%)
Title : ТРК Україна (студiя МОВА)
Language : Ukrainian
Service kind : Complete Main
Default : No
Forced : No

Audio #3
ID : 4
Format : AC-3
Format/Info : Audio Coding 3
Commercial name : Dolby Digital
Codec ID : A_AC3
Duration : 1 h 37 min
Bit rate mode : Constant
Bit rate : 192 kb/s
Channel(s) : 2 channels
Channel layout : L R
Sampling rate : 48.0 kHz
Frame rate : 31.250 FPS (1536 SPF)
Compression mode : Lossy
Stream size : 134 MiB (1%)
Title : Новий канал
Language : Ukrainian
Service kind : Complete Main
Default : Yes
Forced : Yes

Audio #4
ID : 5
Format : AC-3
Format/Info : Audio Coding 3
Commercial name : Dolby Digital
Codec ID : A_AC3
Duration : 1 h 37 min
Bit rate mode : Constant
Bit rate : 640 kb/s
Channel(s) : 6 channels
Channel layout : L R C LFE Ls Rs
Sampling rate : 48.0 kHz
Frame rate : 31.250 FPS (1536 SPF)
Compression mode : Lossy
Stream size : 446 MiB (3%)
Title : Оригiнал (640)
Language : English
Service kind : Complete Main
Default : No
Forced : No

Audio #5
ID : 6
Format : XLL
Format/Info : Digital Theater Systems
Commercial name : -HD Master Audio
Codec ID : A_DTS
Duration : 1 h 37 min
Bit rate mode : Variable
Bit rate : 1 990 kb/s
Channel(s) : 6 channels
Channel layout : C L R Ls Rs LFE
Sampling rate : 48.0 kHz
Frame rate : 93.750 FPS (512 SPF)
Bit depth : 16 bits
Compression mode : Lossless
Stream size : 1.36 GiB (9%)
Title : Оригiнал
Language : English
Default : No
Forced : No

Text
ID : 7
Format : UTF-8
Codec ID : S_TEXT/UTF8
Codec ID/Info : UTF-8 Plain Text
Duration : 1 h 30 min
Bit rate : 69 b/s
Count of elements : 1225
Stream size : 45.8 KiB (0%)
Title : Оригiнал
Language : English
Default : Yes
Forced : Yes

Menu
00:00:00.000 : en:00:00:00.000
00:09:35.759 : en:00:09:35.759
00:14:47.840 : en:00:14:47.840
00:25:18.599 : en:00:25:18.599
00:29:49.640 : en:00:29:49.640
00:38:05.760 : en:00:38:05.760
00:45:16.159 : en:00:45:16.159
00:54:42.840 : en:00:54:42.840
00:59:21.760 : en:00:59:21.760
01:10:54.760 : en:01:10:54.760
01:15:31.399 : en:01:15:31.399
01:25:06.840 : en:01:25:06.840
01:30:33.800 : en:01:30:33.800
Скріншоти
Джерело: &
Особиста оцінка: 10 - без зайвих вагань рекомендую всім!


Золотий реліз (завантажене не впливає на рейтинг)
 Трекер:    Зареєстрований   

Завантажити / скачати фільм українською



відео для новачків



 Зареєстрований:   2021-01-09 14:44
 Розмір:   15.75 GB 
 Оцінка фільму:   9/10 (Голосів: 2)
   
Інші релізи
   16 кварталів / 16 Blocks (2006) AVC 4xUkr/Eng | sub Eng Maters  5 / 0   2.51 GB   2019-10-24 21:41 
   16 кварталів / 16 Blocks (2006) 4xUkr/Eng Arsenfpu  5 / 0   2.06 GB   2016-02-10 21:59 
   16 кварталів / 16 Blocks (2006) [MP4, 640x] apvAltisimo  0 / 0   628 MB   2015-10-16 13:56 
   16 кварталів / 16 Blocks (2006) 1080p 3xUkr/Eng | Sub Eng Starroma  4 / 0   7.95 GB   2014-06-20 13:58 
   16 кварталів / 16 Blocks (2006) 720p 3xUkr/Eng | Sub Eng Lan  0 / 0   4.38 GB   2012-03-14 00:02 
   16 кварталів / 16 Blocks (2006) 3xUkr/Eng | Sub Eng Lan  2 / 1   2.44 GB   2012-03-12 18:40 
Ваш часовий пояс: GMT + 2 Години

Нова тема   Відповісти