Дорога додому 2: Загублені в Сан-Франциско / Homeward Bound II: Lost in San Francisco (1996) 1080p Ukr/Eng | Sub Eng

Нові коментарі

Нова тема   Відповісти
Автор Повідомлення
Anonymous 







2021-01-09 14:10  
Дорога додому 2: Загублені в Сан-Франциско / Homeward Bound II: Lost in San Francisco (1996) 1080p Ukr/Eng | Sub Eng

Дорога додому 2: Загублені в Сан-Франциско / Homeward Bound II: Lost in San Francisco (1996) 1080p Ukr/Eng | Sub Eng


Жанр: пригодницький, комедія, сімейний, романтичний
Країна: США



Кінокомпанія: Walt Disney Pictures, City Dogs Productions
Режисер: Девід Р. Елліс
Актори: Майкл Джей Фокс, Саллі Філд, Ральф Вейт, Аль Майклз, Томмі Ласорда та інші

Сюжет:
Трійця звірів, що вміють розмовляти, повертається для нової пригоди! Якщо раніше їм доводилося подорожувати по горах і пустелях, то тепер пес Шанс, кішка Сессі і чарівний ретривер Шедоу загубилися у вируючому Сан - Франциско! З цілою зграєю знайомих дворняг спритна трійця прокладає шлях через міські джунглі додому, до улюбленої сім'ї.
Оригінальний трейлер:


Рейтинг MPAA: G - немає вікових обмежень
Вікова категорія: 6+

Тривалість: 01:25:05
Якість: 1080p

Відео:
кодек:
розмір кадру: 1920 х 1080
бітрейт: 10000 кб/с

Аудіо #1:
мова: українська
переклад: багатоголосий закадровий | студія LeDoyen
кодек: 5.1
бітрейт: 256 кб/с
Інформація про озвучення
Аудіо #2:
мова: англійська
переклад: оригінал
кодек: 2.0
бітрейт: 125 кб/с

Субтитри # 1:
мова: українська (примусові - на написи)
тип: програмні (м'які)
формат: *.srt

Субтитри # 2:
мова: англійська
тип: програмні (м'які)
формат: *.srt
Info
Код:
Complete name               : Homeward Bound 2. Lost in San Francisco (1996) [Ukr,Eng sub.Eng] 1080p [Hurtom].
Format                      :
Format version              : Version 4
File size                   : 6.09 GiB
Duration                    : 1 h 25 min
Overall bit rate            : 10.2 Mb/s
Movie name                  : Дорога додому 2: Загублені в Сан-Франциско / Homeward Bound II: Lost in San Francisco (1996) [Ukr,Eng Sub.Eng] 1080p [Hurtom]
Encoded date                : UTC 2021-01-10 19:28:01
Writing application         : v52.0.0 ('Secret For The Mad') 64-bit
Writing library             : libebml v1.4.1 + v1.6.2
Cover                       : Yes
Attachments                 : cover.jpg

Video
ID                          : 1
Format                      : AVC
Format/Info                 : Advanced Video Codec
Format profile              : [email protected]
Format settings             : CABAC / 4 Ref Frames
Format settings, CABAC      : Yes
Format settings, Reference  : 4 frames
Codec ID                    : V_MPEG4/ISO/AVC
Duration                    : 1 h 25 min
Bit rate mode               : Constant
Bit rate                    : 10 000 kb/s
Width                       : 1 920 pixels
Height                      : 1 080 pixels
Display aspect ratio        : 16:9
Frame rate mode             : Constant
Frame rate                  : 25.000 FPS
Standard                    : PAL
Color space                 : YUV
Chroma subsampling          : 4:2:0
Bit depth                   : 8 bits
Scan type                   : Progressive
Bits/(Pixel*Frame)          : 0.193
Stream size                 : 5.86 GiB (96%)
Title                       : Дорога додому 2: Загублені в Сан-Франциско / Homeward Bound II: Lost in San Francisco (1996) 1080p [TrollHD]
Language                    : English
Default                     : Yes
Forced                      : No
Color range                 : Limited
Color primaries             : BT.709
Transfer characteristics    : BT.709
Matrix coefficients         : BT.709

Audio #1
ID                          : 2
Format                      : LC
Format/Info                 : Advanced Audio Codec Low Complexity
Codec ID                    : A_AAC-2
Duration                    : 1 h 25 min
Bit rate                    : 256 kb/s
Channel(s)                  : 6 channels
Channel layout              : C L R Ls Rs LFE
Sampling rate               : 44.1 kHz
Frame rate                  : 43.066 FPS (1024 SPF)
Compression mode            : Lossy
Delay relative to video     : -80 ms
Stream size                 : 156 MiB (2%)
Title                       : MVO [LeDoyen], 5.1 256 Kbps
Language                    : Ukrainian
Default                     : Yes
Forced                      : No

Audio #2
ID                          : 3
Format                      : LC
Format/Info                 : Advanced Audio Codec Low Complexity
Codec ID                    : A_AAC-2
Duration                    : 1 h 25 min
Bit rate                    : 125 kb/s
Channel(s)                  : 2 channels
Channel layout              : L R
Sampling rate               : 48.0 kHz
Frame rate                  : 46.875 FPS (1024 SPF)
Compression mode            : Lossy
Delay relative to video     : -80 ms
Stream size                 : 76.3 MiB (1%)
Title                       : Original, 2.0 125 Kbps
Language                    : English
Default                     : No
Forced                      : No

Text #1
ID                          : 4
Format                      : UTF-8
Codec ID                    : S_TEXT/UTF8
Codec ID/Info               : UTF-8 Plain Text
Duration                    : 1 h 20 min
Bit rate                    : 0 b/s
Count of elements           : 2
Stream size                 : 156 Bytes (0%)
Title                       : Ukr Forced
Language                    : Ukrainian
Default                     : Yes
Forced                      : Yes

Text #2
ID                          : 5
Format                      : UTF-8
Codec ID                    : S_TEXT/UTF8
Codec ID/Info               : UTF-8 Plain Text
Duration                    : 1 h 20 min
Bit rate                    : 90 b/s
Count of elements           : 1358
Stream size                 : 53.3 KiB (0%)
Title                       : Eng Full
Language                    : English
Default                     : No
Forced                      : No



Джерело: &
Подяка п.77997997 за допомогу у створенні релізу.



Срібний реліз (на рейтинг впливає 50% завантаженого)
 Трекер:    Зареєстрований   

Завантажити / скачати фільм українською



відео для новачків



 Зареєстрований:   2021-01-10 21:58
 Розмір:   6.09 GB 
 Оцінка фільму:   10/10 (Голосів: 2)
 ЗАЛИШАЙТЕСЬ ЯКОМОГА ДОВШЕ НА РОЗДАЧІ! ЗАВАНТАЖИВ САМ - ДАЙ ЗАВАНТАЖИТИ ІНШИМ!
   
bot 
робот


З нами з: 30.09.07
Востаннє: 26.05.05
Повідомлень: 26940

2021-01-10 21:57  
Тему перенесено з Анонси релізів до форуму Фільми в HD


igor911

Ваш часовий пояс: GMT + 2 Години

Нова тема   Відповісти