Дорога додому: Неймовірна подорож / Homeward Bound: The Incredible Journey (1993) 1080p 2xUkr/Eng | Sub Eng

Нові коментарі

Нова тема   Відповісти
Автор Повідомлення
Anonymous 







2021-01-09 11:46  
Дорога додому: Неймовірна подорож / Homeward Bound: The Incredible Journey (1993) 1080p 2xUkr/Eng | Sub Eng

Дорога додому: Неймовірна подорож / Homeward Bound: The Incredible Journey (1993) 1080p 2xUkr/Eng | Sub Eng

Оригінальні обкладинки та постери




повнорозмірні зображення відкриються по кліку (з натиснутим CTRL чи кліком середньою кнопкою мишки - у іншій вкладці)


Жанр: драма, комедія, пригодницький, сімейний
Країна: США



Кінокомпанія: Touchwood Pacific Partners 1, Walt Disney Pictures
Режисер: Двейн Данем / Duwayne Dunham
Актори: Майкл Джей Фокс / Michael J. Fox (озвучення в оригіналі), Дон Алдер / Don Alder, Ед Бернард / Ed Bernard, Кевін Чевалія / Kevin Chevalia, Вероніка Лорен / Veronica Lauren, Вуді Еней / Woody Eney, Кім Грайст / Kim Greist, Річ Гокінс / Rich Hawkins, Роберт Хейс / Robert Hays та інші

Сюжет:
Господарі двох собак та чарівної кішечки Сесі змушені на деякий час виїхати, тож віддають своїх вихованців на ранчо друга. Через деякий час тварини, які опинилися за сотні миль від улюбленого будинку, починають турбуватися, чи бува не трапились у господарів неприємності. Поміркувавши, весела трійця вирішує самостійно дістатися до дому і пускається в неймовірно небезпечну подорож горами та лісами...
Оригінальний трейлер:


Рейтинг MPAA: G - нема вікових обмежень
Вікова категорія: 6+

Тривалість: 01:20:38
Якість: 1080p

Відео:
кодек:
розмір кадру: 1920 х 1080
бітрейт: 10000 кб/с

Аудіо #1:
мова: українська
переклад: багатоголосий закадровий | студія LeDoyen
кодек: 5.1
бітрейт: 256 кб/с
Інформація про озвучення:
Перекладач: Павло Голов
Режисер озвучення: Ольга Фокіна
Звукорежисер: Олена Лапіна
Звукорежисер перезапису: Віктор Алферов

Ролі озвучили: Олена Борозенець, Андрій Твердак, Олександр Солодкий, Вікторія Москаленко, Тетяна Антонова, Андрій Соболєв.

Озвучено студією LeDoyen.
Аудіо # 2:
мова: українська
переклад: багатоголосий закадровий
кодек: 2.0
бітрейт: 192 кб/с

Аудіо # 3:
мова: англійська
переклад: оригінал
кодек: 2.0
бітрейт: 125 кб/с

Субтитри:
мова: англійська
тип: програмні (м'які)
формат: *.srt
Info
Код:
Complete name               : Homeward Bound. The Incredible Journey (1993) [2xUkr,Eng sub.Eng] 1080p [Hurtom].
Format                      :
Format version              : Version 4
File size                   : 5.92 GiB
Duration                    : 1 h 20 min
Overall bit rate            : 10.5 Mb/s
Movie name                  : Дорога додому: Неймовірна подорож / Homeward Bound: The Incredible Journey (1993) [2xUkr,Eng sub.Eng] 1080p [Hurtom]
Encoded date                : UTC 2021-01-09 09:14:30
Writing application         : v52.0.0 ('Secret For The Mad') 64-bit
Writing library             : libebml v1.4.1 + v1.6.2
Cover                       : Yes
Attachments                 : cover.jpg

Video
ID                          : 1
Format                      : AVC
Format/Info                 : Advanced Video Codec
Format profile              : [email protected]
Format settings             : CABAC / 4 Ref Frames
Format settings, CABAC      : Yes
Format settings, Reference  : 4 frames
Format settings, GOP        : M=4, N=50
Codec ID                    : V_MPEG4/ISO/AVC
Duration                    : 1 h 20 min
Bit rate mode               : Constant
Bit rate                    : 10 000 kb/s
Width                       : 1 920 pixels
Height                      : 1 080 pixels
Display aspect ratio        : 16:9
Frame rate mode             : Constant
Frame rate                  : 25.000 FPS
Standard                    : PAL
Color space                 : YUV
Chroma subsampling          : 4:2:0
Bit depth                   : 8 bits
Scan type                   : Progressive
Bits/(Pixel*Frame)          : 0.193
Stream size                 : 5.60 GiB (95%)
Title                       : Дорога додому: Неймовірна подорож / Homeward Bound: The Incredible Journey (1993) 1080p [TrollHD]
Language                    : English
Default                     : Yes
Forced                      : No
Color range                 : Limited
Color primaries             : BT.709
Transfer characteristics    : BT.709
Matrix coefficients         : BT.709

Audio #1
ID                          : 2
Format                      : LC
Format/Info                 : Advanced Audio Codec Low Complexity
Codec ID                    : A_AAC-2
Duration                    : 1 h 20 min
Bit rate                    : 256 kb/s
Channel(s)                  : 6 channels
Channel layout              : C L R Ls Rs LFE
Sampling rate               : 44.1 kHz
Frame rate                  : 43.066 FPS (1024 SPF)
Compression mode            : Lossy
Delay relative to video     : -80 ms
Stream size                 : 148 MiB (2%)
Title                       : MVO [LeDoyen], 5.1 256 Kbps
Language                    : Ukrainian
Default                     : Yes
Forced                      : Yes

Audio #2
ID                          : 3
Format                      : AC-3
Format/Info                 : Audio Coding 3
Commercial name             : Dolby Digital
Codec ID                    : A_AC3
Duration                    : 1 h 20 min
Bit rate mode               : Constant
Bit rate                    : 192 kb/s
Channel(s)                  : 2 channels
Channel layout              : L R
Sampling rate               : 48.0 kHz
Frame rate                  : 31.250 FPS (1536 SPF)
Compression mode            : Lossy
Delay relative to video     : -80 ms
Stream size                 : 111 MiB (2%)
Title                       : MVO [K1], 2.0 192 Kbps
Language                    : Ukrainian
Service kind                : Complete Main
Default                     : No
Forced                      : No

Audio #3
ID                          : 4
Format                      : LC
Format/Info                 : Advanced Audio Codec Low Complexity
Codec ID                    : A_AAC-2
Duration                    : 1 h 20 min
Bit rate                    : 125 kb/s
Channel(s)                  : 2 channels
Channel layout              : L R
Sampling rate               : 48.0 kHz
Frame rate                  : 46.875 FPS (1024 SPF)
Compression mode            : Lossy
Delay relative to video     : -80 ms
Stream size                 : 72.4 MiB (1%)
Title                       : Original, 2.0 125 Kbps
Language                    : English
Default                     : No
Forced                      : No

Text
ID                          : 5
Format                      : UTF-8
Codec ID                    : S_TEXT/UTF8
Codec ID/Info               : UTF-8 Plain Text
Duration                    : 1 h 15 min
Bit rate                    : 73 b/s
Count of elements           : 1088
Stream size                 : 40.9 KiB (0%)
Title                       : Eng Full
Language                    : English
Default                     : No
Forced                      : No
Скріншоти:


Джерело: &
Українські доріжки: PuMa.ua, 77997997, igrik09, igor911; постер - igrik09; фільмографія - Віктор (всі - Гуртом).



Срібний реліз (на рейтинг впливає 50% завантаженого)
 Трекер:    Зареєстрований   

Завантажити / скачати фільм українською



відео для новачків



 Зареєстрований:   2021-01-09 11:46
 Розмір:   5.92 GB 
 Оцінка фільму:   10/10 (Голосів: 4)
 ЗАЛИШАЙТЕСЬ ЯКОМОГА ДОВШЕ НА РОЗДАЧІ! ЗАВАНТАЖИВ САМ - ДАЙ ЗАВАНТАЖИТИ ІНШИМ!
   
Anonymous 







2021-01-10 22:59  
Друга частина в 1080p з українським 5.1 звуком: https://toloka.to/t126829
Ваш часовий пояс: GMT + 2 Години

Нова тема   Відповісти