Золото / Gold (2016) 1080p Ukr/Eng | sub Eng

Нові коментарі

Нова тема   Відповісти
Автор Повідомлення
Anonymous 







2021-01-08 19:54  
Золото / Gold (2016) 1080p Ukr/Eng | sub Eng

Золото / Gold (2016) 1080p Ukr/Eng | sub Eng


Жанр: кримінальний, драма
Країна: США



Кінокомпанія: Black Bear Pictures, Boies / Schiller Film Group, Hwy61
Режисер: Стівен Гейган
Актори: Меттью МакКонахі, Брайс Даллас Ховард, Тобі Кеббелл, Рейчел Тейлор, Едгар Рамірес, Брюс Грінвуд, Корі Столл, Білл Кемп, Майкл Лендіс, Стейсі Кіч

Сюжет:
Сюжет розповідає історію Кенні Веллса - сучасного золотошукача, хвацького ділка і мрійника, який відчайдушно чекає шансу переламати долю. Залишившись без особливих варіантів, Веллс знаходить собі такого ж невдачливого партнера - геолога, щоб реалізувати грандіозний план: знайти золото в незвіданих індонезійських джунглях.


Тривалість: 02:00:20
Якість:
Відео:
кодек:
розмір кадру: 1920 х 800
бітрейт: 8894 кб/с

Аудіо # 1:
мова: українська
переклад: професійний дубльований
кодек: 2.0
бітрейт: 192 кб/с

Аудіо # 2:
мова: англійська
переклад: оригінал
кодек: 5.1
бітрейт: 1509 кб/с

Субтитри:
мова: англійська
тип: програмні (м'які)
формат: *.sub
Info
Код:
General
Unique ID                                : 292549500606518994480600786919709463792 (0xDC16FBFDED36B920500E48E171BBD4F0)
Complete name                            : Gold (2016) 1080p [Ukr_Eng] [Hurtom].
Format                                   :
Format version                           : Version 4
File size                                : 8.91 GiB
Duration                                 : 2 h 0 min
Overall bit rate                         : 10.6 Mb/s
Movie name                               : Золото (2016)
Encoded date                             : UTC 2021-01-08 13:23:07
Writing application                      : v52.0.0 ('Secret For The Mad') 64-bit
Writing library                          : libebml v1.4.1 + v1.6.2
Cover                                    : Yes
Attachments                              : cover.jpg

Video
ID                                       : 1
Format                                   : AVC
Format/Info                              : Advanced Video Codec
Format profile                           : [email protected]
Format settings                          : CABAC / 5 Ref Frames
Format settings, CABAC                   : Yes
Format settings, Reference frames        : 5 frames
Codec ID                                 : V_MPEG4/ISO/AVC
Duration                                 : 2 h 0 min
Bit rate                                 : 8 894 kb/s
Width                                    : 1 920 pixels
Height                                   : 800 pixels
Display aspect ratio                     : 2.40:1
Frame rate mode                          : Constant
Frame rate                               : 23.976 FPS
Color space                              : YUV
Chroma subsampling                       : 4:2:0
Bit depth                                : 8 bits
Scan type                                : Progressive
Bits/(Pixel*Frame)                       : 0.242
Stream size                              : 7.47 GiB (84%)
Writing library                          : core 148 r2744 b97ae06
Encoding settings                        : cabac=1 / ref=5 / deblock=1:0:0 / analyse=0x3:0x133 / me=umh / subme=7 / psy=1 / psy_rd=1.00:0.00 / mixed_ref=1 / me_range=16 / chroma_me=1 / trellis=1 / 8x8dct=1 / cqm=0 / deadzone=21,11 / fast_pskip=0 / chroma_qp_offset=-2 / threads=25 / lookahead_threads=4 / sliced_threads=0 / nr=0 / decimate=1 / interlaced=0 / bluray_compat=0 / constrained_intra=0 / bframes=3 / b_pyramid=2 / b_adapt=1 / b_bias=0 / direct=1 / weightb=1 / open_gop=0 / weightp=2 / keyint=250 / keyint_min=23 / scenecut=40 / intra_refresh=0 / rc_lookahead=40 / rc=2pass / mbtree=1 / bitrate=8894 / ratetol=1.0 / qcomp=0.60 / qpmin=0 / qpmax=69 / qpstep=4 / cplxblur=20.0 / qblur=0.5 / ip_ratio=1.40 / aq=1:1.00
Language                                 : English
Default                                  : Yes
Forced                                   : No

Audio #1
ID                                       : 2
Format                                   : AC-3
Format/Info                              : Audio Coding 3
Commercial name                          : Dolby Digital
Codec ID                                 : A_AC3
Duration                                 : 2 h 0 min
Bit rate mode                            : Constant
Bit rate                                 : 192 kb/s
Channel(s)                               : 2 channels
Channel layout                           : L R
Sampling rate                            : 48.0 kHz
Frame rate                               : 31.250 FPS (1536 SPF)
Compression mode                         : Lossy
Stream size                              : 165 MiB (2%)
Language                                 : Ukrainian
Service kind                             : Complete Main
Default                                  : Yes
Forced                                   : Yes

Audio #2
ID                                       : 3
Format                                   :
Format/Info                              : Digital Theater Systems
Codec ID                                 : A_DTS
Duration                                 : 2 h 0 min
Bit rate mode                            : Constant
Bit rate                                 : 1 509 kb/s
Channel(s)                               : 6 channels
Channel layout                           : C L R Ls Rs LFE
Sampling rate                            : 48.0 kHz
Frame rate                               : 93.750 FPS (512 SPF)
Bit depth                                : 24 bits
Compression mode                         : Lossy
Stream size                              : 1.27 GiB (14%)
Language                                 : English
Default                                  : No
Forced                                   : No

Text
ID                                       : 4
Format                                   : VobSub
Muxing mode                              : zlib
Codec ID                                 : S_VOBSUB
Codec ID/Info                            : Picture based subtitle format used on DVDs
Duration                                 : 1 h 59 min
Bit rate                                 : 11.1 kb/s
Count of elements                        : 1994
Stream size                              : 9.44 MiB (0%)
Language                                 : English
Default                                  : Yes
Forced                                   : No

Menu
00:00:00.000                             : en:00:00:00.000
00:05:22.656                             : en:00:05:22.656
00:12:13.358                             : en:00:12:13.358
00:18:37.700                             : en:00:18:37.700
00:25:58.932                             : en:00:25:58.932
00:31:31.515                             : en:00:31:31.515
00:37:36.129                             : en:00:37:36.129
00:44:01.180                             : en:00:44:01.180
00:50:37.201                             : en:00:50:37.201
00:57:16.016                             : en:00:57:16.016
01:04:13.725                             : en:01:04:13.725
01:10:21.175                             : en:01:10:21.175
01:16:30.419                             : en:01:16:30.419
01:23:53.362                             : en:01:23:53.362
01:30:24.419                             : en:01:30:24.419
01:36:08.429                             : en:01:36:08.429
01:39:51.986                             : en:01:39:51.986
01:48:49.690                             : en:01:48:49.690
01:52:55.102                             : en:01:52:55.102

Скріншоти






Джерело:


 Трекер:    Зареєстрований   

Завантажити / скачати фільм українською



відео для новачків



 Зареєстрований:   2021-01-08 19:54
 Розмір:   8.91 GB 
 Оцінка фільму:   9.6/10 (Голосів: 11)
   
Інші релізи
   Золото / Gold (2016) AVC Ukr/Eng | sub Eng Arsenfpu  85 / 1   2.34 GB   2021-01-08 18:53 
Ваш часовий пояс: GMT + 2 Години

Нова тема   Відповісти