Ґлорії / The Glorias (2020) 720p Eng | Sub Ukr/Eng

Нові коментарі

Нова тема   Відповісти
Автор Повідомлення
Anonymous 







2021-01-08 03:41  
Ґлорії / The Glorias (2020) 720p Eng | Sub Ukr/Eng

Оригінальний постер:



Жанр: біографічний, драма, історичний
Країна: США



Кінокомпанія: Artemis Rising Foundation, Page Fifty-Four Pictures, The Glorias
Режисер: Джулі Теймор / Julie Taymor
Актори: Алісія Вікандер / Alicia Vikander, Джуліанна Мур / Julianne Moore, Олівія Олсон / Olivia Olson, Жанель Моне / Janelle Monáe, Бетт Мідлер / Bette Midler, Тимоті Гаттон / Timothy Hutton, Лулу Вілсон / Lulu Wilson, Раян Кіра Армстронґ / Ryan Kiera Armstrong, Ґлорія Стайнем / Gloria Steinem

Сюжет:
Історія життя ікони світового фемінізму Ґлорії Стайнем. Її дитинство пройшло в непростих умовах і саме воно дало Ґлорії силу і мужність, щоб в кінці 1960-х років стати лідером руху захисту прав жінок у всьому світі.
Офіційний трейлер:

Рейтинг MPAA: R - особам до 17 років обов'язкова присутність батьків або дорослого опікуна
Вікова категорія: 16+
Тривалість: 02:27:02
Якість: 720p
Відео:
кодек:
розмір кадру: 1280х688
бітрейт: 4220 кб/с

Аудіо:
мова: англійська
переклад: оригінал
кодек: E- 5.1
бітрейт: 640 кб/с

Субтитри # 1:
мова: українська
тип: програмні (м'які)
формат: *.srt
переклад: офіційний, Володимир Фатун

Субтитри # 2:
мова: англійська (SDH)
тип: програмні (м'які)
формат: *.srt
Info
Код:
Complete name               : The Glorias (2020) [Eng sub.Ukr,Eng] 720p [Hurtom].
Format                      :
Format version              : Version 4
File size                   : 4.99 GiB
Duration                    : 2 h 27 min
Overall bit rate            : 4 862 kb/s
Movie name                  : Ґлорії / The Glorias (2020) [Eng sub.Ukr,Eng] 720p [Hurtom]
Encoded date                : UTC 2021-01-08 13:21:15
Writing application         : v52.0.0 ('Secret For The Mad') 64-bit
Writing library             : libebml v1.4.1 + v1.6.2

Video
ID                          : 1
Format                      : AVC
Format/Info                 : Advanced Video Codec
Format profile              : [email protected]
Format settings             : CABAC / 4 Ref Frames
Format settings, CABAC      : Yes
Format settings, Reference  : 4 frames
Codec ID                    : V_MPEG4/ISO/AVC
Duration                    : 2 h 27 min
Bit rate mode               : Constant
Bit rate                    : 4 220 kb/s
Nominal bit rate            : 6 000 kb/s
Width                       : 1 280 pixels
Height                      : 688 pixels
Display aspect ratio        : 1.85:1
Frame rate mode             : Constant
Frame rate                  : 23.976 (24000/1001) FPS
Color space                 : YUV
Chroma subsampling          : 4:2:0
Bit depth                   : 8 bits
Scan type                   : Progressive
Bits/(Pixel*Frame)          : 0.200
Stream size                 : 4.33 GiB (87%)
Title                       : Ґлорії / The Glorias (2020) 720p [AMZN, NTG]
Language                    : English
Default                     : Yes
Forced                      : No
Color range                 : Limited
Color primaries             : BT.709
Transfer characteristics    : BT.709
Matrix coefficients         : BT.709

Audio
ID                          : 2
Format                      : E-AC-3
Format/Info                 : Enhanced AC-3
Commercial name             : Dolby Digital Plus
Codec ID                    : A_EAC3
Duration                    : 2 h 27 min
Bit rate mode               : Constant
Bit rate                    : 640 kb/s
Channel(s)                  : 6 channels
Channel layout              : L R C LFE Ls Rs
Sampling rate               : 48.0 kHz
Frame rate                  : 31.250 FPS (1536 SPF)
Compression mode            : Lossy
Stream size                 : 673 MiB (13%)
Language                    : English
Service kind                : Complete Main
Default                     : Yes
Forced                      : No

Text #1
ID                          : 3
Format                      : UTF-8
Codec ID                    : S_TEXT/UTF8
Codec ID/Info               : UTF-8 Plain Text
Duration                    : 2 h 26 min
Bit rate                    : 93 b/s
Count of elements           : 1766
Stream size                 : 100 KiB (0%)
Title                       : Ukr Full
Language                    : Ukrainian
Default                     : Yes
Forced                      : Yes

Text #2
ID                          : 4
Format                      : UTF-8
Codec ID                    : S_TEXT/UTF8
Codec ID/Info               : UTF-8 Plain Text
Duration                    : 2 h 25 min
Bit rate                    : 70 b/s
Count of elements           : 2306
Stream size                 : 75.5 KiB (0%)
Title                       : SDH
Language                    : English
Default                     : No
Forced                      : No



Джерело: &
Подяка за надані субтитри п.subTrader (subscene.com)

У випадку появи українського озвучення реліз буде оновлено.


 Трекер:    Зареєстрований   

Завантажити / скачати фільм українською



відео для новачків



 Зареєстрований:   2021-01-08 16:31
 Розмір:   4.99 GB 
 Оцінка фільму:   7.8/10 (Голосів: 8)
 ЗАЛИШАЙТЕСЬ ЯКОМОГА ДОВШЕ НА РОЗДАЧІ! ЗАВАНТАЖИВ САМ - ДАЙ ЗАВАНТАЖИТИ ІНШИМ!
   
bot 
робот


З нами з: 30.09.07
Востаннє: 26.05.05
Повідомлень: 27938

2021-01-08 16:31  
Тему перенесено з Анонси релізів до форуму Фільми


igor911

Ваш часовий пояс: GMT + 2 Години

Нова тема   Відповісти