Вовча яма 2 / Wolf Creek 2 (2013) 1080p Ukr/Eng | Sub Eng

Нові коментарі

Нова тема   Відповісти
Останній раз роздавалося Timm (2021-01-22)
Автор Повідомлення
Anonymous 







2021-01-08 01:55  
Вовча яма 2 / Wolf Creek 2 (2013) 1080p Ukr/Eng | Sub Eng


Альтернативний постер:



Жанр: екшн, жахи, трилер
Країна: Австралія



Кінокомпанія: Screen Australia, The South Australian Film Corporation, Duo Art Productions
Режисер: Грег Маклін
Актори: Джон Джеррет, Райан Кор, Шеннон Ешлін, Філліпп Клаус, Шейн Коннор, Бен Джеррард, Герард Кеннеді, Енні Байрон

Сюжет:
Туристи Рутгер, Катаріна і Пол приїжджають до знаменитої австралійської пам'ятки, кратера погаслого вулкана Вовча Яма. Їх мрії про пригоди невдовзі звертаються в жахливу реальність, коли вони стикаються з сумно відомим місцевим жителем, садистом-вбивцею Міком Тейлором ...

Тривалість: 01:46:15
Якість: 1080p

Відео:
Кодек:
Розмір кадру: 1920 x 816
Бітрейт: 10.2 Мбіт/с

Аудіо 1:
Мова: українська
Переклад: багатоголосий закадровий

Кодек: 2.0
Бітрейт: 192 Кбіт/с

Аудіо 2:
Мова: англійська
Переклад: Оригінал
Кодек: 5.1
Бітрейт: 1509 Кбіт/с

Субтитри:
Мова: англійська | Повні
Тип: програмні (м'які)
Формат: *.srt

Info


General
Unique ID : 175299274103608343720180276441686185655 (0x83E16980DD03D9E3B77228123DB396B7)
Format :
Format version : Version 4
File size : 8.86 GiB
Duration : 1 h 46 min
Overall bit rate : 11.9 Mb/s
Movie name : Вовча яма 2 / Wolf Creek 2 (2013) 1080p [UkrEng] [SubEng] [Hurtom]
Encoded date : UTC 2021-01-07 23:27:08
Writing application : v52.0.0 ('Secret For The Mad') 64-bit
Writing library : libebml v1.4.1 + v1.6.2
Attachments : poster_eng1.jpg / poster_eng2.jpg

Video
ID : 1
Format : AVC
Format/Info : Advanced Video Codec
Format profile : [email protected]
Format settings : CABAC / 5 Ref Frames
Format settings, CABAC : Yes
Format settings, Reference fra : 5 frames
Codec ID : V_MPEG4/ISO/AVC
Duration : 1 h 46 min
Bit rate : 10.2 Mb/s
Width : 1 920 pixels
Height : 816 pixels
Display aspect ratio : 2.35:1
Frame rate mode : Constant
Frame rate : 23.976 (24000/1001) FPS
Color space : YUV
Chroma subsampling : 4:2:0
Bit depth : 8 bits
Scan type : Progressive
Bits/(Pixel*Frame) : 0.273
Stream size : 7.60 GiB (86%)
Title : Wolf Creek 2 (2013) 1080p
Writing library : core 138 r2358 9e941d1
Encoding settings : cabac=1 / ref=5 / deblock=1:0:0 / analyse=0x3:0x113 / me=umh / subme=10 / psy=1 / psy_rd=1.00:0.00 / mixed_ref=1 / me_range=32 / chroma_me=1 / trellis=2 / 8x8dct=1 / cqm=0 / deadzone=21,11 / fast_pskip=1 / chroma_qp_offset=-2 / threads=6 / lookahead_threads=1 / sliced_threads=0 / nr=0 / decimate=1 / interlaced=0 / bluray_compat=0 / constrained_intra=0 / bframes=6 / b_pyramid=2 / b_adapt=1 / b_bias=0 / direct=1 / weightb=1 / open_gop=0 / weightp=2 / keyint=240 / keyint_min=23 / scenecut=40 / intra_refresh=0 / rc_lookahead=40 / rc=2pass / mbtree=0 / bitrate=10240 / ratetol=1.0 / qcomp=0.70 / qpmin=0 / qpmax=69 / qpstep=4 / cplxblur=20.0 / qblur=0.5 / vbv_maxrate=62500 / vbv_bufsize=78125 / nal_hrd=none / ip_ratio=1.40 / pb_ratio=1.30 / aq=1:1.00
Language : English
Default : Yes
Forced : No

Audio #1
ID : 2
Format : AC-3
Format/Info : Audio Coding 3
Commercial name : Dolby Digital
Codec ID : A_AC3
Duration : 1 h 46 min
Bit rate mode : Constant
Bit rate : 192 kb/s
Channel(s) : 2 channels
Channel layout : L R
Sampling rate : 48.0 kHz
Frame rate : 31.250 FPS (1536 SPF)
Compression mode : Lossy
Stream size : 146 MiB (2%)
Title : MVO [AMC] 2.0 @ 192 Кбіт/с
Language : Ukrainian
Service kind : Complete Main
Default : Yes
Forced : No

Audio #2
ID : 3
Format :
Format/Info : Digital Theater Systems
Codec ID : A_DTS
Duration : 1 h 46 min
Bit rate mode : Constant
Bit rate : 1 509 kb/s
Channel(s) : 6 channels
Channel layout : C L R Ls Rs LFE
Sampling rate : 48.0 kHz
Frame rate : 93.750 FPS (512 SPF)
Bit depth : 24 bits
Compression mode : Lossy
Stream size : 1.12 GiB (13%)
Title : [Оригінал] 5.1 @1509 Кбіт/с
Language : English
Default : No
Forced : No

Text
ID : 4
Format : UTF-8
Codec ID : S_TEXT/UTF8
Codec ID/Info : UTF-8 Plain Text
Duration : 1 h 37 min
Bit rate : 30 b/s
Count of elements : 772
Stream size : 21.8 KiB (0%)
Title : Повні
Language : English
Default : No
Forced : No

Menu
00:00:00.000 : :IT'S AN UNDER
00:11:48.791 : :RUTGER & KATARINA
00:21:16.233 : :STUCK IN YHE MIDDLE OF NOWHERE
00:31:37.895 : :ESCAPE
00:35:13.194 : :YOU NEVER STOP
00:44:41.637 : :WHERE TO GO?
00:53:41.259 : :"YOU'LL HAVE TO DO BETTER THAN THAT"
00:59:04.541 : :SAFETY
01:10:18.130 : :MICK TAYLOR
01:19:21.798 : :AUSSIE HISTORY
01:32:16.781 : :BEATING THE GAME
01:41:16.862 : :CREDITS
Скріншоти










Робота зі звуком - Arsenfpu

Джерело:


 Трекер:    Зареєстрований   

Завантажити / скачати фільм українською



відео для новачків



 Зареєстрований:   2021-01-08 01:55
 Розмір:   8.86 GB 
 Оцінка фільму:   -/10 (Голосів: 0)
   
Інші релізи
   Вовча яма 2 / Wolf Creek 2 (2013) 720p Ukr/Eng | sub Eng staf777  1 / 0   4.51 GB   2020-11-27 16:55 
   Вовча яма 2 / Wolf Creek 2 (2013) AVC Ukr/Eng | sub Eng Arsenfpu  4 / 0   1.8 GB   2020-11-23 22:23 
Ваш часовий пояс: GMT + 2 Години

Нова тема   Відповісти