Том і Джеррі: Історія Лускунчика / Tom and Jerry: A Nutcracker Tale (2007) AVC 2xUkr/Eng

Нові коментарі

Нова тема   Відповісти
Автор Повідомлення
Arsenfpu 
Відео Гуртом - фільмокрай
Відео Гуртом - фільмокрай


З нами з: 30.04.09
Востаннє: 14.04.21
Повідомлень: 8138

2021-01-07 21:01  
Том і Джеррі: Історія Лускунчика / Tom and Jerry: A Nutcracker Tale (2007) AVC 2xUkr/Eng

Том і Джеррі: Історія Лускунчика / Tom and Jerry: A Nutcracker Tale (2007) AVC 2xUkr/Eng


Жанр: анімація, комедія, сімейний
Країна: США



Кінокомпанія: Warner Bros. Animation
Режисер: Спайк Брент, Тоні Сервон
Ролі озвучують: Шантал Странт, Ян Джеймс Корлетт, Кетлін Барр, Тара Стронг, Гаррі Чак, Тревор Девал, Річард Ньюмен, Марк Олівер

Сюжет:
У порожньому оперному театрі Джеррі загадує бажання про власні виступи, і магічним чином його мрія збувається. Мале мишеня переноситься в чарівне королівство, де все можливо: цукеркові ліси, співаючі сніжинки, навіть іграшки оживають! Джеррі відмінно проводить час зі своїми новими друзями, коли він танцює з балериною з музичної коробки, він щасливий, як ніколи раніше. На жаль, бездомні кішки, наведені Томом, вриваються на вечірку Джеррі, викрадають балерину з музичної коробки і приносять жах у святкове королівство. Тепер все залежить від Джеррі, за допомогою знайомої мишки Таффі і нових друзів він може все налагодити!


Тривалість: 00:46:52
Якість:
Відео:
кодек:
розмір кадру: 1 024 х 576
бітрейт: 2 100 кб/с

Аудіо # 1:
мова: українська
переклад: багатоголосий закадровий
кодек: 2.0
бітрейт: 192 кб/с

Аудіо # 2:
мова: українська
переклад: багатоголосий закадровий
кодек: 2.0
бітрейт: 192 кб/с

примітка: озвучення різні

Аудіо # 3:
мова: англійська
переклад: оригінал
кодек: 2.0
бітрейт: 192 кб/с
Скріншоти














Про файл
General
Unique ID : 274860917207351826609657883680640093520 (0xCEC8497F54404F0CE4E78F68EC384D50)
Complete name : D:\Tom and Jerry. A Nutcracker Tale (2007) [2xUk,Eng] AVC [Hurtom].
Format :
Format version : Version 4
File size : 898 MiB
Duration : 46 min 52 s
Overall bit rate : 2 679 kb/s
Movie name : Том і Джеррі: Історія Лускунчика / Tom and Jerry: A Nutcracker Tale (2007)
Encoded date : UTC 2021-01-07 17:47:14
Writing application : v21.0.0 ('Tardigrades Will Inherit The Earth') 32-bit
Writing library : libebml v1.3.5 + v1.4.8
Cover : Yes
Attachments : cover.jpg

Video
ID : 1
Format : AVC
Format/Info : Advanced Video Codec
Format profile : [email protected]
Format settings : CABAC / 8 Ref Frames
Format settings, CABAC : Yes
Format settings, Reference : 8 frames
Codec ID : V_MPEG4/ISO/AVC
Duration : 46 min 52 s
Bit rate : 2 100 kb/s
Width : 1 024 pixels
Height : 576 pixels
Display aspect ratio : 16:9
Frame rate mode : Constant
Frame rate : 25.000 FPS
Color space : YUV
Chroma subsampling : 4:2:0
Bit depth : 8 bits
Scan type : Progressive
Bits/(Pixel*Frame) : 0.142
Stream size : 704 MiB (78%)
Writing library : core 157 r2969 d4099dd
Encoding settings : cabac=1 / ref=8 / deblock=1:-1:-1 / analyse=0x3:0x133 / me=umh / subme=10 / psy=1 / psy_rd=1.00:0.15 / mixed_ref=1 / me_range=32 / chroma_me=1 / trellis=2 / 8x8dct=1 / cqm=0 / deadzone=21,11 / fast_pskip=0 / chroma_qp_offset=-3 / threads=18 / lookahead_threads=1 / sliced_threads=0 / nr=0 / decimate=1 / interlaced=0 / bluray_compat=0 / constrained_intra=0 / bframes=3 / b_pyramid=2 / b_adapt=2 / b_bias=0 / direct=3 / weightb=1 / open_gop=0 / weightp=2 / keyint=250 / keyint_min=25 / scenecut=40 / intra_refresh=0 / rc_lookahead=60 / rc=2pass / mbtree=1 / bitrate=2100 / ratetol=1.0 / qcomp=0.60 / qpmin=0 / qpmax=69 / qpstep=4 / cplxblur=20.0 / qblur=0.5 / vbv_maxrate=31250 / vbv_bufsize=31250 / nal_hrd=none / filler=0 / ip_ratio=1.40 / aq=1:1.00
Default : Yes
Forced : No

Audio #1
ID : 2
Format : AC-3
Format/Info : Audio Coding 3
Commercial name : Dolby Digital
Codec ID : A_AC3
Duration : 46 min 50 s
Bit rate mode : Constant
Bit rate : 192 kb/s
Channel(s) : 2 channels
Channel layout : L R
Sampling rate : 48.0 kHz
Frame rate : 31.250 FPS (1536 SPF)
Compression mode : Lossy
Stream size : 64.3 MiB (7%)
Title : Новий
Language : Ukrainian
Service kind : Complete Main
Default : Yes
Forced : Yes

Audio #2
ID : 3
Format : AC-3
Format/Info : Audio Coding 3
Commercial name : Dolby Digital
Codec ID : A_AC3
Duration : 46 min 50 s
Bit rate mode : Constant
Bit rate : 192 kb/s
Channel(s) : 2 channels
Channel layout : L R
Sampling rate : 48.0 kHz
Frame rate : 31.250 FPS (1536 SPF)
Compression mode : Lossy
Stream size : 64.3 MiB (7%)
Language : Ukrainian
Service kind : Complete Main
Default : No
Forced : No

Audio #3
ID : 4
Format : AC-3
Format/Info : Audio Coding 3
Commercial name : Dolby Digital
Codec ID : A_AC3
Duration : 46 min 51 s
Bit rate mode : Constant
Bit rate : 192 kb/s
Channel(s) : 2 channels
Channel layout : L R
Sampling rate : 48.0 kHz
Frame rate : 31.250 FPS (1536 SPF)
Compression mode : Lossy
Stream size : 64.4 MiB (7%)
Language : English
Service kind : Complete Main
Default : No
Forced : No
Джерело:
За українські доріжки дякую п. xslim, MutuLI, Drommer
Особиста оцінка: не дивився


 Трекер:    Зареєстрований   

Завантажити / скачати мультфільм українською



відео для новачків



 Зареєстрований:   2021-01-07 21:01
 Розмір:   898 MB 
 Оцінка мультфільму:   5.5/10 (Голосів: 2)
   
Masanchick 
VIP


З нами з: 08.04.11
Востаннє: 14.04.21
Повідомлень: 1620

2021-01-07 21:09  
а яка різниця між звуковими доріжками?
Arsenfpu 
Відео Гуртом - фільмокрай
Відео Гуртом - фільмокрай


З нами з: 30.04.09
Востаннє: 14.04.21
Повідомлень: 8138

2021-01-07 21:11  
Masanchick
Різний переклад, різні голоси. А так, спільне одне - мова українська Happy

tilda4334 
Відео Гуртом - фільмокрай
Відео Гуртом - фільмокрай


З нами з: 15.08.14
Востаннє: 14.04.21
Повідомлень: 1535

2021-01-07 21:11  
Masanchick написано:
а яка різниця між звуковими доріжками?

Напевно, різні актори.

Masanchick 
VIP


З нами з: 08.04.11
Востаннє: 14.04.21
Повідомлень: 1620

2021-01-07 21:12  
Arsenfpu
новий канал молодці)

Додано через 1 хвилину 1 секунду:

tilda4334

я примітку не побачив, тепер зрозумів

fl_fl 
Відео Гуртом - фільмокрай
Відео Гуртом - фільмокрай


З нами з: 26.05.09
Востаннє: 14.04.21
Повідомлень: 3382

2021-01-07 21:20  
Одна доріжка робилась на СТБ, інша на ТТП. Мабуть встигли втратити)
Dark Invader 
Модератор відео


З нами з: 06.01.11
Востаннє: 14.04.21
Повідомлень: 3176

2021-01-08 18:54  
Яке озвучення стоїть першим, нове чи старе? Wink (2)
Arsenfpu 
Відео Гуртом - фільмокрай
Відео Гуртом - фільмокрай


З нами з: 30.04.09
Востаннє: 14.04.21
Повідомлень: 8138

2021-01-08 18:58  
Dark Invader
Нове.

AlexVE 
Частий відвідувач


З нами з: 04.05.19
Востаннє: 14.04.21
Повідомлень: 36

2021-02-18 21:00  
А навіщо було робити два озвучення?
Masanchick 
VIP


З нами з: 08.04.11
Востаннє: 14.04.21
Повідомлень: 1620

2021-02-18 21:02  
AlexVE
Вище написали, що напевне старе озвучення втрачене, з якихось причин, тому зробили нове

Ваш часовий пояс: GMT + 2 Години

Нова тема   Відповісти