Перевал Кассандри / The Cassandra Crossing (1976) 1080p Ukr/Eng | Sub Ukr/Eng

Нові коментарі

Нова тема   Відповісти
Автор Повідомлення
kryk-v.ya. 
Попереджень: 1
Попереджень: 1 


З нами з: 14.02.14
Востаннє: 19.01.21
Повідомлень: 2433

2021-01-07 16:58  
Перевал Кассандри / The Cassandra Crossing (1976) 1080p Ukr/Eng | Sub Ukr/Eng

Перевал Кассандри / The Cassandra Crossing (1976) 1080p Ukr/Eng | Sub Ukr/Eng


Жанр: драма, трилер
Країна: США



Кінокомпанія: Associated General Films, International Cine Productions
Режисер: Джордж Пан Косматос
Актори: Софі Лорен, Річард Гарріс, Берт Ланкастер, Ава Гарднер, Мартін Шин, Інґрід Тулін, О. Дж. Сімпсон, Лі Страсберґ, Лайонел Стендер, Енн Теркель

Сюжет:
Полковник ЦРУ Маккензі дізнається, що серед пасажирів трансконтинентального експреса Женева-Стокгольм ховається терорист,що хворий небезпечною формою легеневої чуми, вакцина від якої ще не знайдено. Маккензі зв'язується з єдиним лікарем в потязі, доктором Чемберленом.

Але Чемберлен і його дружина Дженніфер знаходять хворого занадто пізно, він вже встиг заразити декількох пасажирів. Побоюючись виникнення епідемії, Маккензі вирішує направити «поїзд смерті» до перевалу Кассандри, прирікаючи всіх пасажирів на неминучу загибель ...


Тривалість: 02:08:43
Якість: 1080p
Відео:
кодек:
розмір кадру: 1920 х 1080
бітрейт: 15.4 Mbit/с

Аудіо # 1:
мова: українська
переклад: одноголосий закадровий | (Slava [email protected])
кодек: 2.0
бітрейт: 192 кб/с

Аудіо # 2:
мова: англійська
переклад: оригінал
кодек: 2.0
бітрейт: 1509 кб/с

Джерело озвучення:


Субтитри # 1:
мова: українська
тип: програмні (м'які) | (Slava [email protected])
формат: *.srt

Субтитри # 2:
мова: англійська
тип: програмні (м'які)
формат: *.srt
Info
General
Unique ID : 111155816353439466486683851199752265669 (0x539FD4DE8BE5E8AB08EB636F068D5FC5)
Complete name : D:\LOUD\The Cassandra Crossing (1976) 1080p (Hurtom).
Format :
Format version : Version 4
File size : 15.4 GiB
Duration : 2 h 8 min
Overall bit rate : 17.1 Mb/s
Encoded date : UTC 2021-01-06 21:38:33
Writing application : v25.0.0 ('Prog Noir') 64-bit
Writing library : libebml v1.3.6 + v1.4.9
Cover : Yes
Attachments : cover.jpg

Video
ID : 1
Format : AVC
Format/Info : Advanced Video Codec
Format profile : [email protected]
Format settings : CABAC / 4 Ref Frames
Format settings, CABAC : Yes
Format settings, Reference : 4 frames
Codec ID : V_MPEG4/ISO/AVC
Duration : 2 h 8 min
Bit rate : 15.4 Mb/s
Width : 1 920 pixels
Height : 1 080 pixels
Display aspect ratio : 16:9
Frame rate mode : Constant
Frame rate : 24.000 FPS
Color space : YUV
Chroma subsampling : 4:2:0
Bit depth : 8 bits
Scan type : Progressive
Bits/(Pixel*Frame) : 0.310
Stream size : 13.9 GiB (90%)
Writing library : core 146 r2538 121396c
Encoding settings : cabac=1 / ref=4 / deblock=1:-3:-3 / analyse=0x3:0x113 / me=umh / subme=10 / psy=1 / psy_rd=1.00:0.15 / mixed_ref=1 / me_range=32 / chroma_me=1 / trellis=2 / 8x8dct=1 / cqm=0 / deadzone=21,11 / fast_pskip=1 / chroma_qp_offset=-3 / threads=6 / lookahead_threads=1 / sliced_threads=0 / nr=0 / decimate=1 / interlaced=0 / bluray_compat=0 / constrained_intra=0 / bframes=12 / b_pyramid=2 / b_adapt=2 / b_bias=0 / direct=1 / weightb=1 / open_gop=0 / weightp=2 / keyint=230 / keyint_min=23 / scenecut=40 / intra_refresh=0 / rc_lookahead=40 / rc=crf / mbtree=0 / crf=19.5 / qcomp=0.60 / qpmin=0 / qpmax=69 / qpstep=4 / vbv_maxrate=40000 / vbv_bufsize=50000 / crf_max=0.0 / nal_hrd=none / filler=0 / ip_ratio=1.40 / pb_ratio=1.30 / aq=1:1.00
Language : English
Default : Yes
Forced : No

Audio #1
ID : 2
Format : AC-3
Format/Info : Audio Coding 3
Commercial name : Dolby Digital
Codec ID : A_AC3
Duration : 2 h 8 min
Bit rate mode : Constant
Bit rate : 192 kb/s
Channel(s) : 2 channels
Channel layout : L R
Sampling rate : 48.0 kHz
Frame rate : 31.250 FPS (1536 SPF)
Compression mode : Lossy
Stream size : 177 MiB (1%)
Title : OV-[Slava [email protected]]
Language : Ukrainian
Service kind : Complete Main
Default : Yes
Forced : No

Audio #2
ID : 3
Format :
Format/Info : Digital Theater Systems
Codec ID : A_DTS
Duration : 2 h 8 min
Bit rate mode : Constant
Bit rate : 1 509 kb/s
Channel(s) : 2 channels
Channel layout : L R
Sampling rate : 48.0 kHz
Frame rate : 93.750 FPS (512 SPF)
Bit depth : 24 bits
Compression mode : Lossy
Stream size : 1.36 GiB (9%)
Title : Original
Language : English
Default : No
Forced : No

Text #1
ID : 4
Format : UTF-8
Codec ID : S_TEXT/UTF8
Codec ID/Info : UTF-8 Plain Text
Duration : 2 h 6 min
Bit rate : 76 b/s
Count of elements : 900
Stream size : 70.9 KiB (0%)
Title : full-[Slava [email protected]]
Language : Ukrainian
Default : Yes
Forced : No

Text #2
ID : 5
Format : UTF-8
Codec ID : S_TEXT/UTF8
Codec ID/Info : UTF-8 Plain Text
Duration : 2 h 3 min
Bit rate : 50 b/s
Count of elements : 1105
Stream size : 45.8 KiB (0%)
Title : SDH
Language : English
Default : No
Forced : No

Menu
00:00:00.000 : en:Opening Credits / en:Глава 01
00:03:04.333 : en:Terrorists
00:06:39.458 : en:Plague
00:11:05.583 : en:Train Station
00:15:06.330 : en:Inspiration
00:22:40.750 : en:Dangerous Train
00:27:30.583 : en:A New Book
00:32:48.292 : en:Diner
00:36:46.792 : en:Intuition
00:45:33.000 : en:Helicopter
00:54:10.333 : en:Rerouting
01:00:28.708 : en:The First Patients
01:07:45.917 : en:Stopping
01:13:19.667 : en:Getaway
01:17:55.917 : en:The Cassandra Crossing
01:25:04.000 : en:The Doomed
01:31:21.083 : en:Drug Courier
01:36:44.833 : en:Recovery
01:39:53.500 : en:Capture of the Train
01:47:35.708 : en:A New Plan
01:50:48.375 : en:Climber
01:54:19.500 : en:Explosion
01:58:41.583 : en:Disaster
02:06:48.875 : en:Closing Credits


Джерело: &
Особиста оцінка: 10 - без зайвих вагань рекомендую всім!

Подяка за звук та субтитри пану Slava [email protected].


Авторський реліз (завантажувати можна без реєстрації)
 Трекер:    Зареєстрований   

Завантажити / скачати фільм українською



відео для новачків



 Зареєстрований:   2021-01-07 16:58
 Розмір:   15.41 GB 
 Оцінка фільму:   7/10 (Голосів: 4)
   
Інші релізи
lightinsight 
Свій


З нами з: 07.04.14
Востаннє: 16.01.21
Повідомлень: 135

2021-01-07 19:20  
Дякую! З Різдвом всіх!
Ваш часовий пояс: GMT + 2 Години

Нова тема   Відповісти