Обітниця / The Promise (2016) 1080p Ukr/Eng | Sub Eng

Нові коментарі

Нова тема   Відповісти
Автор Повідомлення
kryk-v.ya. 
Попереджень: 1
Попереджень: 1 


З нами з: 14.02.14
Востаннє: 23.01.21
Повідомлень: 2443

2021-01-06 19:26  
Обітниця / The Promise (2016) 1080p Ukr/Eng | Sub Eng

Обітниця / The Promise (2016) 1080p Ukr/Eng | Sub Eng


Жанр: бойовик, пригодницький, драма, історичний
Країна: США, Іспанія



Кінокомпанія: Babieka, Wonderful Films, Survival Pictures
Режисер: Террі Джордж
Актори: Оскар Айзек, Крістіан Бейл, Шоре Агдашлу, Анджела Сарафян, Шарлот Ле Бон, Джеймс Кромвелл , Том Голландер, Жан Рено.

Сюжет:
1914 рік. Велична Османська імперія стоїть за крок від свого краху. На тлі занурення прекрасної столиці імперії, Константинополя, у розруху і заворушення, відбувається ця історія. Мікаель Богосян, студент-медик, випадково потрапляє у столицю, адже він їде в рідне село на півдні країни. Він — вірменин-християнин, що в цей час стає невигідним описом. Мікаель сильно закохався у красуню Анну, і ця любов взаємна. У той же час від дівчини втрачає розум американський кореспондент найбільшого інформаційного агентства Associated Press Кріс Маєрс. Він приїхав у країну, щоб задовольнити своє бажання в отриманні адреналіну. Хлопці обидва дуже хотіли б отримати серце дівчини, але коли на кону життя сотень вірмен — не до любовних воєн. Кріс і Мікаел зроблять все, щоб світ знав правду і щоб якомога менше народу загинуло… Кожен намагатиметься врятувати не тільки своє життя, а й життя інших людей.


Тривалість: 02:13:07
Якість: 1080р
Відео:
кодек:
розмір кадру: 1920 х 800
бітрейт: 9443 кб/с

Аудіо # 1:
мова: українська
переклад: професійний дубльований
кодек: 2.0
бітрейт: 192 кб/с (стерео)

Аудіо # 2:
мова: англійська
переклад: оригінал
кодек: 5.1
бітрейт: 1509 кб/с

Субтитри:
мова: англійська
тип: програмні (м'які)
формат: *.srt
Info
General
Unique ID : 160527583552019355060431035856604090285 (0x78C47CEDFB08B342E0D78157D4A7CFAD)
Complete name : D:\LOUD\The Promise (2016) 1080p (Hurtom).
Format :
Format version : Version 4
File size : 10.4 GiB
Duration : 2 h 13 min
Overall bit rate : 11.1 Mb/s
Encoded date : UTC 2021-01-08 15:33:18
Writing application : v25.0.0 ('Prog Noir') 64-bit
Writing library : libebml v1.3.6 + v1.4.9
Cover : Yes
Attachments : cover.jpg

Video
ID : 1
Format : AVC
Format/Info : Advanced Video Codec
Format profile : [email protected]
Format settings : CABAC / 4 Ref Frames
Format settings, CABAC : Yes
Format settings, Reference : 4 frames
Codec ID : V_MPEG4/ISO/AVC
Duration : 2 h 13 min
Bit rate : 9 443 kb/s
Width : 1 920 pixels
Height : 800 pixels
Display aspect ratio : 2.40:1
Frame rate mode : Constant
Frame rate : 23.976 (24000/1001) FPS
Color space : YUV
Chroma subsampling : 4:2:0
Bit depth : 8 bits
Scan type : Progressive
Bits/(Pixel*Frame) : 0.256
Stream size : 8.78 GiB (85%)
Writing library : core 149 r2771+45 509cceb 7mod [[email protected] X86_64]
Encoding settings : cabac=1 / ref=4 / deblock=1:-3:-3 / analyse=0x3:0x113 / me=umh / subme=10 / psy=1 / fade_compensate=0.00 / psy_rd=0.90:0.10 / mixed_ref=1 / me_range=48 / chroma_me=1 / trellis=2 / 8x8dct=1 / cqm=0 / deadzone=21,11 / fast_pskip=0 / chroma_qp_offset=-2 / threads=12 / lookahead_threads=2 / sliced_threads=0 / nr=0 / decimate=1 / interlaced=0 / bluray_compat=0 / constrained_intra=0 / fgo=0 / bframes=8 / b_pyramid=2 / b_adapt=2 / b_bias=0 / direct=3 / weightb=1 / open_gop=0 / weightp=2 / keyint=250 / keyint_min=23 / scenecut=40 / intra_refresh=0 / rc_lookahead=40 / rc=crf / mbtree=0 / crf=20.0000 / qcomp=0.70 / qpmin=0:0:0 / qpmax=69:69:69 / qpstep=4 / vbv_maxrate=35000 / vbv_bufsize=35000 / crf_max=0.0 / nal_hrd=none / filler=0 / ip_ratio=1.40 / pb_ratio=1.30 / aq=3:1.00 / aq-sensitivity=10.00 / aq-factor=1.00:1.00:1.00 / aq2=0 / aq3=2:[0.50:0.50]:[0.50:0.50]:[0.50:0.50]:[0.50:0.50] / aq3-sensitivity=10.00 / aq3-factor=[1.00:1.00]:[1.00:1.00]:[1.00:1.00] / aq3-boundary=192:64:24
Language : English
Default : Yes
Forced : No
Color range : Limited
Matrix coefficients : BT.709

Audio #1
ID : 2
Format : AC-3
Format/Info : Audio Coding 3
Commercial name : Dolby Digital
Codec ID : A_AC3
Duration : 2 h 13 min
Bit rate mode : Constant
Bit rate : 192 kb/s
Channel(s) : 2 channels
Channel layout : L R
Sampling rate : 48.0 kHz
Frame rate : 31.250 FPS (1536 SPF)
Compression mode : Lossy
Stream size : 183 MiB (2%)
Title : DUB
Language : Ukrainian
Service kind : Complete Main
Default : Yes
Forced : No

Audio #2
ID : 3
Format :
Format/Info : Digital Theater Systems
Codec ID : A_DTS
Duration : 2 h 13 min
Bit rate mode : Constant
Bit rate : 1 509 kb/s
Channel(s) : 6 channels
Channel layout : C L R Ls Rs LFE
Sampling rate : 48.0 kHz
Frame rate : 93.750 FPS (512 SPF)
Bit depth : 24 bits
Compression mode : Lossy
Stream size : 1.40 GiB (14%)
Title : Original
Language : English
Default : No
Forced : No

Text
ID : 4
Format : UTF-8
Codec ID : S_TEXT/UTF8
Codec ID/Info : UTF-8 Plain Text
Duration : 2 h 2 min
Bit rate : 38 b/s
Count of elements : 1143
Stream size : 34.8 KiB (0%)
Title : Full
Language : English
Default : Yes
Forced : No

Menu
00:00:00.000 : en:Chapter 1
00:05:25.992 : en:Chapter 2
00:11:53.421 : en:Chapter 3
00:15:46.946 : en:Chapter 4
00:21:24.908 : en:Chapter 5
00:24:10.031 : en:Chapter 6
00:28:40.301 : en:Chapter 7
00:31:35.560 : en:Chapter 8
00:34:20.641 : en:Chapter 9
00:37:50.643 : en:Chapter 10
00:41:40.748 : en:Chapter 11
00:44:27.373 : en:Chapter 12
00:47:33.308 : en:Chapter 13
00:49:05.692 : en:Chapter 14
00:51:20.368 : en:Chapter 15
00:54:38.483 : en:Chapter 16
00:59:25.520 : en:Chapter 17
01:01:04.744 : en:Chapter 18
01:06:44.000 : en:Chapter 19
01:10:50.329 : en:Chapter 20
01:13:06.131 : en:Chapter 21
01:17:41.365 : en:Chapter 22
01:21:53.742 : en:Chapter 23
01:24:12.422 : en:Chapter 24
01:27:24.530 : en:Chapter 25
01:29:39.082 : en:Chapter 26
01:34:45.680 : en:Chapter 27
01:38:32.907 : en:Chapter 28
Скріншоти
Джерело: &
Особиста оцінка: 8 - мені сподобалося

Велика подяка за звук пану PuMa.Ua.


 Трекер:    Зареєстрований   

Завантажити / скачати фільм українською



відео для новачків



 Зареєстрований:   2021-01-08 17:55
 Розмір:   10.36 GB 
 Оцінка фільму:   9/10 (Голосів: 9)
   
Інші релізи
   Обітниця / The Promise (2016) AVC Ukr/Eng Arsenfpu  7 / 0   2.5 GB   2021-01-09 00:37 
   Обітниця / The Promise (2016) 720p Ukr/Eng | Sub Eng staf777  2 / 0   5.75 GB   2021-01-08 23:54 
bot 
робот


З нами з: 30.09.07
Востаннє: 26.05.05
Повідомлень: 26963

2021-01-08 17:54  
Тему перенесено з Анонси релізів до форуму Фільми в HD


kryk-v.ya.

Ваш часовий пояс: GMT + 2 Години

Нова тема   Відповісти