Кубок Англійської футбольної ліги 2020/21 | Тоттенгем - Брентфорд | 1/2 фіналу | Setanta Sports (05.01.2021) IPTV

Нові коментарі

Нова тема   Відповісти
Останній раз роздавалося misamisk (2021-03-02)
Автор Повідомлення
misamisk 
Поважний учасник


З нами з: 16.10.17
Востаннє: 27.02.21
Повідомлень: 157

2021-01-06 18:59  
Кубок Англійської футбольної ліги 2020/21 | Тоттенгем - Брентфорд | 1/2 фіналу | Setanta Sports (05.01.2021) IPTV

Кубок Англійської футбольної ліги 2020/21 | Тоттенгем - Брентфорд | 1/2 фіналу | Setanta Sports (05.01.2021) IPTV


Телеканал: Setanta Sports Ukraine
Опис:
Матч відбувся 05.01.2021 у Лондоні на "Тоттенгем Готспур Стедіум".
Матч обслуговували:

Рефері: Майк Дін
Асистенти рефері: Йан Хассін, Деніел Робатан
Четвертий арбітр: Лі Мейсон
VAR: Пітер Бенкс
Асистент VAR: Ніл Дейвіс


Тривалість: 01:45:22
Якість:
Відео:
кодек:
розмір кадру: 1920x1080
бітрейт: ~3495 кб/с

Аудіо:
мова: українська
коментар: одноголосий закадровий | Дмитро Джулай
кодек: 2.0
бітрейт: 129 кб/с
Стартові склади
Info
Код:
General
Unique ID                                : 1719964017429961694912108131905190792 (0x14B40C5F2A2E1D036FD38D523AC3B88)
Complete name                            : Carabao.Cup.2020-21.Semi-finals.Tottenham-Brentford.05.01.2021.ITPV.
Format                                   :
Format version                           : Version 4
File size                                : 2.67 GiB
Duration                                 : 1 h 45 min
Overall bit rate                         : 3 626 kb/s
Movie name                               : Carabao Cup 2020/21. Semi-finals. Tottenham Hotspur - Brentford
Encoded date                             : UTC 2021-01-06 16:23:49
Writing application                      : v24.0.0 ('Beyond The Pale') 64-bit
Writing library                          : libebml v1.3.6 + v1.4.9

Video
ID                                       : 2
Format                                   : AVC
Format/Info                              : Advanced Video Codec
Format profile                           : [email protected]
Format settings                          : 2 Ref Frames
Format settings, CABAC                   : No
Format settings, Reference frames        : 2 frames
Format settings, GOP                     : M=3, N=25
Codec ID                                 : V_MPEG4/ISO/AVC
Duration                                 : 1 h 45 min
Bit rate                                 : 3 495 kb/s
Width                                    : 1 920 pixels
Height                                   : 1 080 pixels
Display aspect ratio                     : 16:9
Frame rate mode                          : Constant
Frame rate                               : 25.000 FPS
Color space                              : YUV
Chroma subsampling                       : 4:2:0
Bit depth                                : 8 bits
Scan type                                : Progressive
Bits/(Pixel*Frame)                       : 0.067
Stream size                              : 2.57 GiB (96%)
Title                                    : Carabao Cup 2020/21. Semi-finals. Tottenham Hotspur - Brentford
Language                                 : English
Default                                  : Yes
Forced                                   : No

Audio
ID                                       : 1
Format                                   : LC
Format/Info                              : Advanced Audio Codec Low Complexity
Codec ID                                 : A_AAC-2
Duration                                 : 1 h 45 min
Bit rate                                 : 129 kb/s
Channel(s)                               : 2 channels
Channel layout                           : L R
Sampling rate                            : 48.0 kHz
Frame rate                               : 46.875 FPS (1024 SPF)
Compression mode                         : Lossy
Delay relative to video                  : 819 ms
Stream size                              : 96.9 MiB (4%)
Title                                    : Commentaries by Dmytro Dzhulay
Language                                 : Ukrainian
Default                                  : Yes
Forced                                   : No

Menu
00:00:00.000                             : en:Half 1
00:52:31.960                             : en:Half 2
Скріншоти


Золотий реліз (завантажене не впливає на рейтинг)
 Трекер:    Зареєстрований   

Завантажити / скачати торрент



відео для новачків



 Зареєстрований:   2021-01-06 18:59
 Розмір:   2.67 GB 
 Оцінка:   10/10 (Голосів: 1)
   
Ваш часовий пояс: GMT + 2 Години

Нова тема   Відповісти