Пітер Пен і Аліса в Країні Чудес / Come Away (2020) Remux 1080p Ukr/Eng | Sub Eng

Нові коментарі

Нова тема   Відповісти
Автор Повідомлення
Anonymous 







2021-01-06 01:24  
Пітер Пен і Аліса в Країні Чудес / Come Away (2020) Remux 1080p Ukr/Eng | Sub Eng

Пітер Пен і Аліса в Країні Чудес / Come Away (2020) Remux 1080p Ukr/Eng | Sub Eng


Жанр: драма, пригодницький, фентезі
Країна: США, Велика Британія



Кінокомпанія: ndurance Media, Hammerstone Studios, Lakeview Entertainment
Режисер: Бренда Чепман
Актори: Анджеліна Джолі, Девід Ойелоуо, Кейра Чанса, Джордан А. Неш, Анна Чанселлор, Майкл Кейн, Ґуґу Ембата-Ро, Нед Деннегі, Кларк Пітерс, Девід Ґясі та інші

Сюжет:
Перш ніж Аліса потрапила до Країни Чудес, а Пітер став Пеном, вони були братом і сестрою. Їх легендарні пригоди почалися завдяки силі уяви, успадкованої від люблячої матері і фантазера-батька. З якими б випробуваннями ні стикалася їх родина, вони ніколи не забували мріяти… Божевільний Капелюшник і Червона Королева, фея Дінь-Дінь і капітан Крюк — диво чекає за кожним кутом, потрібно тільки вміти його побачити…


Тривалість: 01:33:53
Якість: Blu-Ray Remux 1080p

Відео:
кодек:
розмір кадру: 1920x1080
бітрейт: ~28000 кб/с

Аудіо # 1:
мова: українська
переклад: професійний дубльований
кодек: 5.1
бітрейт: 384 кб/с

Аудіо # 2:
мова: англійська
переклад: оригінал
кодек: -HD Master 5.1
бітрейт: 3551 кб/с

Джерело озвучення:


Субтитри:
мова: англійська
тип: пререндерні
формат: *.pgs
Info
General
Complete name : Come Away (2020) Blu-Ray Remux 1080p [Ukr_Eng] [Hurtom].
Format :
Format version : Version 4
File size : 20.9 GiB
Duration : 1 h 33 min
Overall bit rate mode : Variable
Overall bit rate : 31.9 Mb/s
Movie name : Пітер Пен і Аліса в Країні Чудес / Come Away (2020)
Encoded date : UTC 2021-01-06 00:19:00
Writing application : v30.1.0 ('Forever And More') 64-bit
Writing library : libebml v1.3.6 + v1.4.9
Cover : Yes
Attachments : cover.jpg

Video
ID : 1
Format : AVC
Format/Info : Advanced Video Codec
Format profile : [email protected]
Format settings : CABAC / 3 Ref Frames
Format settings, CABAC : Yes
Format settings, RefFrames : 3 frames
Codec ID : V_MPEG4/ISO/AVC
Duration : 1 h 33 min
Bit rate mode : Variable
Bit rate : 28.0 Mb/s
Maximum bit rate : 35.0 Mb/s
Width : 1 920 pixels
Height : 1 080 pixels
Display aspect ratio : 16:9
Frame rate mode : Constant
Frame rate : 24.000 FPS
Standard : NTSC
Color space : YUV
Chroma subsampling : 4:2:0
Bit depth : 8 bits
Scan type : Progressive
Bits/(Pixel*Frame) : 0.562
Stream size : 18.4 GiB (88%)
Default : Yes
Forced : No
Color range : Limited
Color primaries : BT.709
Transfer characteristics : BT.709
Matrix coefficients : BT.709

Audio #1
ID : 2
Format : AC-3
Format/Info : Audio Coding 3
Commercial name : Dolby Digital
Codec ID : A_AC3
Duration : 1 h 33 min
Bit rate mode : Constant
Bit rate : 384 kb/s
Channel(s) : 6 channels
Channel layout : L R C LFE Ls Rs
Sampling rate : 48.0 kHz
Frame rate : 31.250 FPS (1536 SPF)
Bit depth : 16 bits
Compression mode : Lossy
Stream size : 258 MiB (1%)
Title : 5.1 | 384
Language : Ukrainian
Service kind : Complete Main
Default : Yes
Forced : No

Audio #2
ID : 3
Format : XLL
Format/Info : Digital Theater Systems
Commercial name : -HD Master Audio
Codec ID : A_DTS
Duration : 1 h 33 min
Bit rate mode : Variable
Bit rate : 3 551 kb/s
Channel(s) : 6 channels
Channel layout : C L R Ls Rs LFE
Sampling rate : 48.0 kHz
Frame rate : 93.750 FPS (512 SPF)
Bit depth : 24 bits
Compression mode : Lossless
Stream size : 2.33 GiB (11%)
Title : -HD MA 5.1 | 3551
Language : English
Default : No
Forced : No

Text #1
ID : 4
Format : PGS
Muxing mode : zlib
Codec ID : S_HDMV/PGS
Codec ID/Info : Picture based subtitle format used on BDs/HD-DVDs
Duration : 1 h 26 min
Bit rate : 16.4 kb/s
Count of elements : 1624
Stream size : 10.2 MiB (0%)
Language : English
Default : Yes
Forced : No

Text #2
ID : 5
Format : PGS
Muxing mode : zlib
Codec ID : S_HDMV/PGS
Codec ID/Info : Picture based subtitle format used on BDs/HD-DVDs
Duration : 1 h 26 min
Bit rate : 19.4 kb/s
Count of elements : 1858
Stream size : 12.1 MiB (0%)
Language : English
Default : No
Forced : No
Скріншоти




Джерело: &
Особиста оцінка: 0 - не дивився


Золотий реліз (завантажене не впливає на рейтинг)
 Трекер:    Зареєстрований   

Завантажити / скачати фільм українською



відео для новачків



 Зареєстрований:   2021-01-06 02:42
 Розмір:   20.94 GB 
 Оцінка фільму:   5.3/10 (Голосів: 13)
   
clavaykraini 
Свій


З нами з: 16.05.14
Востаннє: 21.01.21
Повідомлень: 124

2021-01-06 15:09  
Аліса у Дивокраї або Аліса в країні Див, невже не краще, ніж запозичений росіянізм?
Андрій-Франківський 
Новенький


З нами з: 30.05.11
Востаннє: 19.01.21
Повідомлень: 13

2021-01-06 21:30  
Абсолютно згідний з clavaykraini !
MassterShadow 
Новенький


З нами з: 31.01.14
Востаннє: 21.01.21
Повідомлень: 1

2021-01-08 17:06  
Чудо - wonder, натомість, miracle - диво, тому, мені здається, Дивокрай і Країна див - менш точний переклад.
Хоча по суті синоніми. Але Керол мав на увазі не дива, а чудасію, тому для відмінності від російського можна було перекласти Чудозем'я, наприклад...

luminofor 
Новенький


З нами з: 21.04.19
Востаннє: 12.01.21
Повідомлень: 3

2021-01-08 17:59  
А я наприклад не розумію, навіщо вигадувати наново назви для фільмів. Є офіційна назва. Потрібно просто її перевести.
Come Away - Йти, або Йти Геть

crazzzzy 
Новенький


З нами з: 04.12.15
Востаннє: 20.01.21
Повідомлень: 13

2021-01-08 21:39  
Блюэээ....блм лайно ((
Василь Михайлюк 
Свій


З нами з: 01.04.19
Востаннє: 19.01.21
Повідомлень: 61

2021-01-08 23:10  
це неможлядійно дивитися, 7+
Wensun 
Поважний учасник


З нами з: 20.01.09
Востаннє: 20.01.21
Повідомлень: 201

2021-01-12 20:50  
Я витримав 40 хв, а дочка (7р) додивилась до години, прийшла і каже, я не буду того більше дивитись....
Василь Михайлюк 
Свій


З нами з: 01.04.19
Востаннє: 19.01.21
Повідомлень: 61

2021-01-14 15:09  
Wensun
ахаха, розумні нинче дітки

Ваш часовий пояс: GMT + 2 Години

Нова тема   Відповісти