Відпочинок за обміном / The Holiday (2006) 1080p H.265 2хUkr/Eng | Sub Ukr/Eng

Нові коментарі

Нова тема   Відповісти
Автор Повідомлення
Anonymous 







2021-01-05 21:26  
Відпочинок за обміном / The Holiday (2006) 1080p H.265 2хUkr/Eng | Sub Ukr/Eng

Відпочинок за обміном / The Holiday (2006) 1080p H.265 2хUkr/Eng | Sub Ukr/Eng


Жанр: мелодрама, комедія
Країна: США
Кінокомпанія: Columbia Pictures Corporation, Columbia Pictures, Relativity Media, Universal Pictures, Waverly Films
Режисер: Ненсі Меєрс
Актори: Кемерон Діас, Кейт Вінслет, Джуд Ло, Джек Блек, Ілай Воллак, Едвард Бернс, Рюфус Сьюелл, Дастін Гоффман, Ліндсі Логан

Сюжет:
Аманда (Кемерон Діас) — успішна ділова жінка, яка живе у Лос-Анджелесі. Айріс (Кейт Вінслет) — провінційна письменниця з Англії. У них обох не складаються відносини з коханими, тому, познайомившись за допомогою Інтернету, аби на якийсь час забути про побутові негаразди і зруйноване особисте життя, жінки вирішують на різдвяні канікули обмінятися житлом і оточенням. Аманда їде до засніженного туманного Альбіону, а Айріс вирушає у сонячну Каліфорнію...

Тривалість: 02:15:46
Якість:

Відео:
кодек: H.265 (HEVC)
розмір кадру: 1920 x 1040
бітрейт: 7 384 кб/с
бітова глибина: 10 біт

Увага! Перед завантаженням переконайтесь, що ваш пристрій відтворення (та/або ПЗ) підтримує H.265 (HEVC)

Аудіо # 1:
мова: українська
озвучення: професійне дубльоване
кодек: AC-3 5.1
бітрейт: 448 кб/с

Аудіо # 2:
мова: українська
озвучення: багатоголосе закадрове
кодек: AC-3 2.0
бітрейт: 192 кб/с

Аудіо # 3:
мова: англійська
озвучення: оригінал
кодек: AC-3 5.1
бітрейт: 448 кб/с

Субтитри # 1-2: (Forced, Full from Netflix)
мова: українська
тип: програмні (м'які)
формат: *.srt

Субтитри # 3: (Full)
мова: англійська
тип: програмні (м'які)
формат: *.srt


Інформація про файл
Код:
General
Unique ID                                : 227046576923772212263914977500284459737 (0xAACF948330D204339FD64FDBA22A1AD9)
Complete name                            : The Holiday (2006) 1080p H.265 [2xUKR_ENG] [Hurtom].
Format                                   :
Format version                           : Version 4
File size                                : 8.04 GiB
Duration                                 : 2 h 15 min
Overall bit rate                         : 8 475 kb/s
Movie name                               : Відпочинок за обміном / The Holiday (2006)
Encoded date                             : UTC 2021-01-05 19:28:51
Writing application                      : v20.0.0 ('I Am The Sun') 64-bit
Writing library                          : libebml v1.3.5 + v1.4.8
Cover                                    : Yes
Attachments                              : Cover.jpg

Video
ID                                       : 1
Format                                   : HEVC
Format/Info                              : High Efficiency Video Coding
Format profile                           : Main [email protected]@High
Codec ID                                 : V_MPEGH/ISO/HEVC
Duration                                 : 2 h 15 min
Bit rate                                 : 7 384 kb/s
Width                                    : 1 920 pixels
Height                                   : 1 040 pixels
Display aspect ratio                     : 1.85:1
Frame rate mode                          : Constant
Frame rate                               : 23.976 (23976/1000) FPS
Original frame rate                      : 23.976 (24000/1001) FPS
Color space                              : YUV
Chroma subsampling                       : 4:2:0
Bit depth                                : 10 bits
Bits/(Pixel*Frame)                       : 0.154
Stream size                              : 7.00 GiB (87%)
Title                                    : Відпочинок за обміном / The Holiday (2006)
Writing library                          : x265 3.4+10-g25b2c0703:[Windows][MSVC 1927][64 bit] 10bit
Encoding settings                        : cpuid=1111039 / frame-threads=4 / numa-pools=16 / wpp / no-pmode / no-pme / no-psnr / no-ssim / log-level=2 / input-csp=1 / input-res=1920x1040 / interlace=0 / total-frames=187735 / level-idc=41 / high-tier=1 / uhd-bd=0 / ref=5 / no-allow-non-conformance / no-repeat-headers / annexb / no-aud / no-hrd / info / hash=0 / no-temporal-layers / open-gop / min-keyint=23 / keyint=240 / gop-lookahead=0 / bframes=14 / b-adapt=2 / b-pyramid / bframe-bias=0 / rc-lookahead=60 / lookahead-slices=4 / scenecut=40 / hist-scenecut=0 / radl=0 / no-splice / no-intra-refresh / ctu=32 / min-cu-size=8 / rect / amp / max-tu-size=32 / tu-inter-depth=4 / tu-intra-depth=4 / limit-tu=1 / rdoq-level=2 / dynamic-rd=0.00 / no-ssim-rd / signhide / no-tskip / nr-intra=0 / nr-inter=0 / no-constrained-intra / no-strong-intra-smoothing / max-merge=4 / limit-refs=2 / limit-modes / me=3 / subme=7 / merange=57 / temporal-mvp / no-frame-dup / no-hme / weightp / weightb / no-analyze-src-pics / deblock=-3:-3 / no-sao / no-sao-non-deblock / rd=6 / selective-sao=0 / no-early-skip / no-rskip / no-fast-intra / no-tskip-fast / no-cu-lossless / no-b-intra / no-splitrd-skip / rdpenalty=0 / psy-rd=2.00 / psy-rdoq=1.00 / no-rd-refine / no-lossless / cbqpoffs=0 / crqpoffs=0 / rc=crf / crf=21.0 / qcomp=0.65 / qpstep=4 / stats-write=0 / stats-read=0 / vbv-maxrate=50000 / vbv-bufsize=50000 / vbv-init=0.9 / crf-max=0.0 / crf-min=0.0 / ipratio=1.40 / pbratio=1.30 / aq-mode=1 / aq-strength=1.00 / no-cutree / zone-count=0 / no-strict-cbr / qg-size=32 / no-rc-grain / qpmax=69 / qpmin=0 / no-const-vbv / sar=1 / overscan=0 / videoformat=5 / range=0 / colorprim=1 / transfer=1 / colormatrix=1 / chromaloc=0 / display-window=0 / cll=0,0 / min-luma=0 / max-luma=1023 / log2-max-poc-lsb=8 / vui-timing-info / vui-hrd-info / slices=1 / no-opt-qp-pps / no-opt-ref-list-length-pps / no-multi-pass-opt-rps / scenecut-bias=0.05 / hist-threshold=0.01 / no-opt-cu-delta-qp / no-aq-motion / no-hdr10 / no-hdr10-opt / no-dhdr10-opt / no-idr-recovery-sei / analysis-reuse-level=0 / analysis-save-reuse-level=0 / analysis-load-reuse-level=0 / scale-factor=0 / refine-intra=0 / refine-inter=0 / refine-mv=1 / refine-ctu-distortion=0 / no-limit-sao / ctu-info=0 / no-lowpass-dct / refine-analysis-type=0 / copy-pic=1 / max-ausize-factor=1.0 / no-dynamic-refine / no-single-sei / no-hevc-aq / no-svt / no-field / qp-adaptation-range=1.00 / no-scenecut-aware-qpconformance-window-offsets / right=0 / bottom=0 / decoder-max-rate=0
Default                                  : Yes
Forced                                   : No
Color range                              : Limited
Color primaries                          : BT.709
Transfer characteristics                 : BT.709
Matrix coefficients                      : BT.709

Audio #1
ID                                       : 2
Format                                   : AC-3
Format/Info                              : Audio Coding 3
Commercial name                          : Dolby Digital
Codec ID                                 : A_AC3
Duration                                 : 2 h 15 min
Bit rate mode                            : Constant
Bit rate                                 : 448 kb/s
Channel(s)                               : 6 channels
Channel layout                           : L R C LFE Ls Rs
Sampling rate                            : 48.0 kHz
Frame rate                               : 31.250 FPS (1536 SPF)
Compression mode                         : Lossy
Stream size                              : 435 MiB (5%)
Title                                    : AC-3 / 5.1 Ch / 448 kbps / DUB / DVD
Language                                 : Ukrainian
Service kind                             : Complete Main
Default                                  : Yes
Forced                                   : Yes

Audio #2
ID                                       : 3
Format                                   : AC-3
Format/Info                              : Audio Coding 3
Commercial name                          : Dolby Digital
Codec ID                                 : A_AC3
Duration                                 : 2 h 15 min
Bit rate mode                            : Constant
Bit rate                                 : 192 kb/s
Channel(s)                               : 2 channels
Channel layout                           : L R
Sampling rate                            : 48.0 kHz
Frame rate                               : 31.250 FPS (1536 SPF)
Compression mode                         : Lossy
Stream size                              : 186 MiB (2%)
Title                                    : AC-3 / 2.0 Ch / 192 kbps / MVO / Канал "Україна"
Language                                 : Ukrainian
Service kind                             : Complete Main
Default                                  : No
Forced                                   : No

Audio #3
ID                                       : 4
Format                                   : AC-3
Format/Info                              : Audio Coding 3
Commercial name                          : Dolby Digital
Codec ID                                 : A_AC3
Duration                                 : 2 h 15 min
Bit rate mode                            : Constant
Bit rate                                 : 448 kb/s
Channel(s)                               : 6 channels
Channel layout                           : L R C LFE Ls Rs
Sampling rate                            : 48.0 kHz
Frame rate                               : 31.250 FPS (1536 SPF)
Compression mode                         : Lossy
Stream size                              : 435 MiB (5%)
Title                                    : AC-3 / 5.1 Ch / 448 kbps / Original
Language                                 : English
Service kind                             : Complete Main
Default                                  : No
Forced                                   : No

Text #1
ID                                       : 5
Format                                   : UTF-8
Codec ID                                 : S_TEXT/UTF8
Codec ID/Info                            : UTF-8 Plain Text
Duration                                 : 1 h 47 min
Bit rate                                 : 0 b/s
Count of elements                        : 22
Stream size                              : 722 Bytes (0%)
Title                                    : Forced
Language                                 : Ukrainian
Default                                  : Yes
Forced                                   : Yes

Text #2
ID                                       : 6
Format                                   : UTF-8
Codec ID                                 : S_TEXT/UTF8
Codec ID/Info                            : UTF-8 Plain Text
Duration                                 : 2 h 14 min
Bit rate                                 : 93 b/s
Count of elements                        : 1810
Stream size                              : 91.8 KiB (0%)
Title                                    : Full from Netflix
Language                                 : Ukrainian
Default                                  : No
Forced                                   : No

Text #3
ID                                       : 7
Format                                   : UTF-8
Codec ID                                 : S_TEXT/UTF8
Codec ID/Info                            : UTF-8 Plain Text
Duration                                 : 2 h 9 min
Bit rate                                 : 68 b/s
Count of elements                        : 1688
Stream size                              : 64.5 KiB (0%)
Title                                    : Full
Language                                 : English
Default                                  : No
Forced                                   : No

Menu
00:00:00.000                             : en:Truth About Love
00:05:29.320                             : en:Union Tip
00:09:21.280                             : en:Somber Truth
00:10:25.960                             : en:Private Affair
00:15:19.880                             : en:Big Hit
00:17:39.720                             : en:Holiday Plans
00:23:10.920                             : en:Turning Points
00:27:16.240                             : en:Home Sweet Home
00:31:45.080                             : en:Getting Acquainted
00:37:09.600                             : en:Plesant Intrusion
00:46:02.880                             : en:Better Off
00:50:16.880                             : en:Mending Spirits
00:53:39.800                             : en:Helping Hand
00:57:35.680                             : en:Leading Lady
00:59:53.840                             : en:Date on the Town
01:06:09.200                             : en:Complicating Things
01:08:45.480                             : en:Real Ladies' Man
01:12:43.680                             : en:Sophie and Olivia
01:16:53.520                             : en:Hot Cocoa
01:18:50.120                             : en:Fit for a Princess
01:21:21.120                             : en:Worlds Apart
01:24:33.120                             : en:Fickle Fitness
01:27:44.360                             : en:Phone Tag
01:30:02.920                             : en:Movie Date
01:32:27.920                             : en:Repairing Breaks
01:36:58.480                             : en:Young and Alive
01:44:40.680                             : en:Old Flames Die Hard
01:57:39.840                             : en:Welcome Back
02:10:06.440                             : en:End Credits
Лог кодування
Код:
x265 [info]: frame I: Avg QP:18.10 kb/s
x265 [info]: frame P: Avg QP:19.30 kb/s
x265 [info]: frame B: Avg QP:21.27 kb/s
Світлини




Джерело: &
Особиста оцінка: 0 - не дивився

Подяка пану leicheman за надані укр. субтитри з Нетфлікс.


 Трекер:    Зареєстрований   

Завантажити / скачати фільм українською



відео для новачків



 Зареєстрований:   2021-01-05 21:30
 Розмір:   8.04 GB 
 Оцінка фільму:   7/10 (Голосів: 3)
   
Ваш часовий пояс: GMT + 2 Години

Нова тема   Відповісти