Чемпіонат Англії 2020/21 | Вест Бромвіч Альбіон - Арсенал | 17 тур | Setanta Sports (02.01.2021) 1080p

Нові коментарі

Нова тема   Відповісти
Останній раз роздавалося misamisk (2021-03-05)
Автор Повідомлення
misamisk 
Поважний учасник


З нами з: 16.10.17
Востаннє: 05.03.21
Повідомлень: 157

2021-01-05 15:26  
Чемпіонат Англії 2020/21 | Вест Бромвіч Альбіон - Арсенал | 17 тур | Setanta Sports (02.01.2021) 1080p

Чемпіонат Англії 2020/21 | Вест Бромвіч Альбіон - Арсенал | 17 тур | Setanta Sports (02.01.2021) 1080p


Телеканал: Setanta Sports Ukraine
Опис:
Матч відбувся 2 січня 2021 року у Вест Бромвічі на "Готорнс".
Матч обслуговували:

Рефері: Мартін Аткінсон
Асистенти рефері: Даррен Канн, Гаррі Леннард
Четвертий арбітр: Даррен Інгланд
VAR: Джонатан Мосс
Асистент VAR: Стефен Чайлд


Тривалість: 01:42:01
Якість:
Відео:
кодек:
розмір кадру: 1920x1080
бітрейт: ~3500 кб/с

Аудіо:
мова: українська
переклад: одноголосий закадровий | Дмитро Джулай
кодек: 2.0
бітрейт: 129 кб/с
Стартові склади
Info
Код:
General
Unique ID                                : 313669314539526023675320353065780434387 (0xEBFA833685F572370425BD65A398D5D3)
Complete name                            : EPL.2020-21.Matchday.17.West.Bromwich.Albion-Arsenal.02.01.2020.IPTV.
Format                                   :
Format version                           : Version 4
File size                                : 2.58 GiB
Duration                                 : 1 h 42 min
Overall bit rate                         : 3 626 kb/s
Movie name                               : English Premier League 2020/21. Matchday 17. West Bromwich Albion - Arsenal
Encoded date                             : UTC 2021-01-04 19:53:12
Writing application                      : v24.0.0 ('Beyond The Pale') 64-bit
Writing library                          : libebml v1.3.6 + v1.4.9

Video
ID                                       : 2
Format                                   : AVC
Format/Info                              : Advanced Video Codec
Format profile                           : [email protected]
Format settings                          : 2 Ref Frames
Format settings, CABAC                   : No
Format settings, Reference frames        : 2 frames
Format settings, GOP                     : M=3, N=25
Codec ID                                 : V_MPEG4/ISO/AVC
Duration                                 : 1 h 42 min
Bit rate                                 : 3 495 kb/s
Width                                    : 1 920 pixels
Height                                   : 1 080 pixels
Display aspect ratio                     : 16:9
Frame rate mode                          : Constant
Frame rate                               : 25.000 FPS
Color space                              : YUV
Chroma subsampling                       : 4:2:0
Bit depth                                : 8 bits
Scan type                                : Progressive
Bits/(Pixel*Frame)                       : 0.067
Stream size                              : 2.49 GiB (96%)
Title                                    : English Premier League 2020/21. Matchday 17. West Bromwich Albion - Arsenal
Language                                 : English
Default                                  : Yes
Forced                                   : No

Audio
ID                                       : 1
Format                                   : LC
Format/Info                              : Advanced Audio Codec Low Complexity
Codec ID                                 : A_AAC-2
Duration                                 : 1 h 42 min
Bit rate                                 : 129 kb/s
Channel(s)                               : 2 channels
Channel layout                           : L R
Sampling rate                            : 48.0 kHz
Frame rate                               : 46.875 FPS (1024 SPF)
Compression mode                         : Lossy
Delay relative to video                  : 667 ms
Stream size                              : 93.8 MiB (4%)
Title                                    : Commentaries by Dmytro Dzhulay
Language                                 : Ukrainian
Default                                  : Yes
Forced                                   : No

Menu
00:00:00.000                             : en:Half 1
00:53:02.336                             : en:Half 2
Скріншоти


Золотий реліз (завантажене не впливає на рейтинг)
 Трекер:    Зареєстрований   

Завантажити / скачати торрент



відео для новачків



 Зареєстрований:   2021-01-05 15:26
 Розмір:   2.58 GB 
 Оцінка:   9/10 (Голосів: 1)
   
Ваш часовий пояс: GMT + 2 Години

Нова тема   Відповісти