Чемпіонат Англії 2020/21 | Кристал Пелас - Шеффілд Юнайтед | 17 тур | Setanta Sports (02.01.2021) 1080p

Нові коментарі

Нова тема   Відповісти
Останній раз роздавалося misamisk (2021-03-05)
Автор Повідомлення
misamisk 
Поважний учасник


З нами з: 16.10.17
Востаннє: 05.03.21
Повідомлень: 157

2021-01-05 15:09  
Чемпіонат Англії 2020/21 | Кристал Пелас - Шеффілд Юнайтед | 17 тур | Setanta Sports (02.01.2021) 1080p

Чемпіонат Англії 2020/21 | Кристал Пелас - Шеффілд Юнайтед | 17 тур | Setanta Sports (02.01.2021) 1080p


Телеканал: Setanta Sports Ukraine
Опис:
Матч відбувся 2 січня 2021 року у Лондоні на "Селхурст Парк".
Матч обслуговували:

Рефері: Стюарт Атвелл
Асистенти рефері: Неіл Девіс, Пітер Кіркап
Четвертий арбітр: Кейт Страуд
VAR: Андре Маррінер
Асистент VAR: Річард Вест


Тривалість: 01:53:18
Якість:
Відео:
кодек:
розмір кадру: 1920x1080
бітрейт: ~5000 кб/с

Аудіо:
мова: українська
переклад: одноголосий закадровий | Ігор Бойко
кодек: 2.0
бітрейт: 129 кб/с
Стартові склади
Info
Код:
General
Unique ID                                : 161054902316191368668660720189560138563 (0x792A0BC080BF3645917197BED0992B43)
Complete name                            : EPL.2020-21.Matchday.17.Crystal.Palace-Sheffield.United.02.01.2020.IPTV.
Format                                   :
Format version                           : Version 4
File size                                : 4.21 GiB
Duration                                 : 1 h 53 min
Overall bit rate mode                    : Variable
Overall bit rate                         : 5 322 kb/s
Movie name                               : English Premier League 2020/21. Matchday 17. Crystal Palace - Sheffield United
Encoded date                             : UTC 2021-01-04 11:52:16
Writing application                      : v24.0.0 ('Beyond The Pale') 64-bit
Writing library                          : libebml v1.3.6 + v1.4.9

Video
ID                                       : 1
Format                                   : AVC
Format/Info                              : Advanced Video Codec
Format profile                           : [email protected]
Format settings                          : CABAC / 2 Ref Frames
Format settings, CABAC                   : Yes
Format settings, Reference frames        : 2 frames
Format settings, GOP                     : M=1, N=25
Codec ID                                 : V_MPEG4/ISO/AVC
Duration                                 : 1 h 53 min
Bit rate mode                            : Variable
Bit rate                                 : 4 999 kb/s
Maximum bit rate                         : 768 kb/s
Width                                    : 1 920 pixels
Height                                   : 1 080 pixels
Display aspect ratio                     : 16:9
Frame rate mode                          : Constant
Frame rate                               : 29.970 (30000/1001) FPS
Original frame rate                      : 25.000 FPS
Color space                              : YUV
Chroma subsampling                       : 4:2:0
Bit depth                                : 8 bits
Scan type                                : Progressive
Bits/(Pixel*Frame)                       : 0.080
Stream size                              : 3.96 GiB (94%)
Title                                    : English Premier League 2020/21. Matchday 17. Crystal Palace - Sheffield United
Language                                 : English
Default                                  : Yes
Forced                                   : No

Audio
ID                                       : 2
Format                                   : LC
Format/Info                              : Advanced Audio Codec Low Complexity
Codec ID                                 : A_AAC-2
Duration                                 : 1 h 53 min
Bit rate                                 : 320 kb/s
Channel(s)                               : 2 channels
Channel layout                           : L R
Sampling rate                            : 44.1 kHz
Frame rate                               : 43.066 FPS (1024 SPF)
Compression mode                         : Lossy
Stream size                              : 259 MiB (6%)
Title                                    : Commentaries by Ihor Boyko
Language                                 : Ukrainian
Default                                  : Yes
Forced                                   : No
Скріншоти


Золотий реліз (завантажене не впливає на рейтинг)
 Трекер:    Зареєстрований   

Завантажити / скачати торрент



відео для новачків



 Зареєстрований:   2021-01-05 15:09
 Розмір:   4.21 GB 
 Оцінка:   9/10 (Голосів: 1)
   
Ваш часовий пояс: GMT + 2 Години

Нова тема   Відповісти