Відданий садівник / Constant Gardener (2005) 1080p Ukr/Eng | Sub Eng

Нові коментарі

Нова тема   Відповісти
Автор Повідомлення
Anonymous 







2021-01-05 02:43  
Відданий садівник / Constant Gardener (2005) 1080p Ukr/Eng | Sub Eng


Альтернативний постер:




Жанр: драма, кримінальний, трилер
Країна: Великобританія, Німеччина, США, Китай



Кінокомпанія: Focus Features , UK Film Council , Potboiler Productions
Режисер: Fernando Meirelles/Фернанду Мейрелліш
Актори: Ralph Fiennes/Рейф Файнс, Rachel Weisz/Рейчел Вайз, Hubert Koundé/Юбер Кунде, Danny Huston/Денні Хьюстон, Donald Sumpter/Дональд Самптер, Bill Nighy/Білл Найї

Сюжет:
Екранізація одноіменного Романа Джона Ле Карре.
Джастін (Файнс), тихий англієць з трохи дитячою розгубленою посмішкою, який веде розмірене життя типового представника середнього класу. Навіть робота дипломата , здається, не змушує його відірватися від щирого захоплення садівництвом. Проте, можливо, це тільки спосіб відволіктися від недосконалості світу.
Під час одної з лекцій Джастін зазнає „нападу” молодої громадської активістки Тесси, обуреною політикою Великобританії щодо Іраку. Незвичне знайомство пререростає в палку пристрасть.
Невдовзі Джастіна з молодою дружиною відправляють в дипломатичну місію в Найробі, де він, як і завжди, без ентузіазму виконує свою роботу та з ентузіазмом працює в саду, ніби не помічаючи громадської діяльності дружини: разом з місцевим лікарем Тесс розслідує діяльність фармацевтичної корпорації, яка чи то надає гуманітарну допомогу найбіднішим верствам населення, чи то використовує це населення для тестування експериментальних ліків.
Якось приходить звістка, що Тесс, яка відправилася в чергову поїздку-розслідування разом з другом-лікарем, знайшли у віддаленому районі Кенії жорстоко вбитою. Незважаючи на свою спокійну вдачу, Джастін вирішує сам розібратися в причинах вбивства Тесс...
Шлях головного героя, що ще вчора був з головою занурений в своє хобі, а сьогодні перетинає кордони за підробним паспортом, вершиться не через раптове „прозріння”. Це відчай гарної людини, яка тримала очі заплющеними, доки це було можливо: бо дивитися не сила. І тільки відданість тим, кого любиш, змушує прямо подивитися в очі Зла, яке криється під маскою буденності...


Тривалість: 02:08:36
Якість: 1080p

Відео:
Кодек:
Розмір кадру: 1920 x 1080
Бітрейт: 13.0 Мбіт/с

Аудіо #1:
Мова: українська
Переклад: багатоголосий закадровий

Кодек: 2.0
Бітрейт: 192 Кбіт/с

Аудіо #2:
Мова: англійська
Переклад: Оригінал
Кодек: 5.1
Бітрейт: 1509 Кбіт/с

Субтитри:
Мова: англійська | Повні
Тип: програмні (м'які)
Формат: *.srt

Info


General
Unique ID : 336354734859499589340372468128855038870 (0xFD0B90C9DDC014CE7B3D4AAC807F1B96)
Format :
Format version : Version 4
File size : 13.2 GiB
Duration : 2 h 8 min
Overall bit rate : 14.7 Mb/s
Movie name : Відданий садівник / Constant Gardener (2005) 1080p [UkrEng][SubEng] [Hurtom]
Encoded date : UTC 2021-01-05 00:18:21
Writing application : v52.0.0 ('Secret For The Mad') 64-bit
Writing library : libebml v1.4.1 + v1.6.2
Attachments : poster_eng1.jpg / poster_eng2.jpg

Video
ID : 1
Format : AVC
Format/Info : Advanced Video Codec
Format profile : [email protected]
Format settings : CABAC / 8 Ref Frames
Format settings, CABAC : Yes
Format settings, Reference fra : 8 frames
Codec ID : V_MPEG4/ISO/AVC
Duration : 2 h 8 min
Bit rate : 13.0 Mb/s
Width : 1 920 pixels
Height : 1 080 pixels
Display aspect ratio : 16:9
Frame rate mode : Constant
Frame rate : 23.976 FPS
Color space : YUV
Chroma subsampling : 4:2:0
Bit depth : 8 bits
Scan type : Progressive
Bits/(Pixel*Frame) : 0.261
Stream size : 11.7 GiB (88%)
Title : Constant Gardener (2005) 1080p
Writing library : core 65 r999M cc51047
Encoding settings : cabac=1 / ref=8 / deblock=1:-3:-3 / analyse=0x3:0x113 / me=umh / subme=9 / psy_rd=1.0:0.0 / mixed_ref=1 / me_range=24 / chroma_me=1 / trellis=2 / 8x8dct=1 / cqm=2 / deadzone=4,2 / chroma_qp_offset=-2 / threads=8 / nr=0 / decimate=1 / mbaff=0 / bframes=3 / b_pyramid=1 / b_adapt=2 / b_bias=0 / direct=3 / wpredb=1 / keyint=250 / keyint_min=25 / scenecut=40(pre) / rc=2pass / bitrate=13000 / ratetol=1.0 / qcomp=0.60 / qpmin=10 / qpmax=51 / qpstep=4 / cplxblur=20.0 / qblur=0.5 / ip_ratio=1.40 / pb_ratio=1.30 / aq=1:0.80
Language : English
Default : Yes
Forced : No

Audio #1
ID : 2
Format : AC-3
Format/Info : Audio Coding 3
Commercial name : Dolby Digital
Codec ID : A_AC3
Duration : 2 h 8 min
Bit rate mode : Constant
Bit rate : 192 kb/s
Channel(s) : 2 channels
Channel layout : L R
Sampling rate : 48.0 kHz
Frame rate : 31.250 FPS (1536 SPF)
Compression mode : Lossy
Delay relative to video : 28 ms
Stream size : 177 MiB (1%)
Title : MVO [СТБ] 2.0 @ 192 Кбіт/с
Language : Ukrainian
Service kind : Complete Main
Default : Yes
Forced : No

Audio #2
ID : 3
Format :
Format/Info : Digital Theater Systems
Codec ID : A_DTS
Duration : 2 h 8 min
Bit rate mode : Constant
Bit rate : 1 509 kb/s
Channel(s) : 6 channels
Channel layout : C L R Ls Rs LFE
Sampling rate : 48.0 kHz
Frame rate : 93.750 FPS (512 SPF)
Bit depth : 16 bits
Compression mode : Lossy
Stream size : 1.35 GiB (10%)
Title : [Оригінал] 5.1 @ 1509 Кбіт/с
Language : English
Default : No
Forced : No

Text
ID : 4
Format : UTF-8
Codec ID : S_TEXT/UTF8
Codec ID/Info : UTF-8 Plain Text
Duration : 1 h 59 min
Bit rate : 62 b/s
Count of elements : 1381
Stream size : 54.6 KiB (0%)
Title : Повні
Language : English
Default : No
Forced : No
Скріншоти








Джерело:


 Трекер:    Зареєстрований   

Завантажити / скачати фільм українською



відео для новачків



 Зареєстрований:   2021-01-05 02:43
 Розмір:   13.2 GB 
 Оцінка фільму:   5.5/10 (Голосів: 2)
   
Інші релізи
   Відданий садівник / Constant Gardener (2005) Ukr/eng Tanat13  2 / 0   2.16 GB   2013-02-23 14:35 
roalad 
VIP


З нами з: 22.06.12
Востаннє: 23.01.21
Повідомлень: 395

2021-01-05 07:35  
Anonymous
Добавте до назви релізу 1080

Форкуш 
VIP


З нами з: 03.02.10
Востаннє: 23.01.21
Повідомлень: 2932

2021-01-05 15:49  
Зробіть хтось АВС нормальне, якщо не важко0 Буду вдячний і роздаватиму
LesiaLesia 
Свій


З нами з: 03.05.12
Востаннє: 23.01.21
Повідомлень: 50

2021-01-05 16:42  
Чи буде реліз 720?
-Star-Lord- 
VIP


З нами з: 09.08.18
Востаннє: 22.01.21
Повідомлень: 2296

2021-01-05 19:04  
Український постер:
Код:
https://img.hurtom.com/i/2021/01/Cover314aadd30ce58a12.md.jpg

Ваш часовий пояс: GMT + 2 Години

Нова тема   Відповісти