Gjallarhorn - Memories, Nightmares, Ash (2020) [] | Pagan Black Metal

Нові коментарі

Нова тема   Відповісти
Автор Повідомлення
kolpavel 
VIP


З нами з: 04.05.14
Востаннє: 25.01.21
Повідомлень: 1366

2021-01-04 21:44  
Gjallarhorn - Memories, Nightmares, Ash (2020) [] | Pagan Black Metal

Gjallarhorn - Memories, Nightmares, Ash (2020) [] | Pagan Black Metal


Стиль: Pagan Black Metal
Країна, місто: Україна, Херсон.
Сайти: Офіційний сайт
Видавець: гурт
Виконавці:
Onswar - вокал, клавішні, барабани
Nameless - гітара, бас
Doomor - гітара
Grimwar - бас
Пісні:
    1. In The Breath Of The Wind - 04:02
    2. On The Plundered Graves - 05:11
    3. Intro - 00:40
    4. Memories, Nightmares, Ash - 08:01
    5. The Twilight Song - 10:22
    6. The Ocean - 06:07
    7. The Heathen Circle - 08:56
    8. The Hangmen's Hill - 08:03

Тривалість: 00:51:25
Мова: iнструментальнi композиції (1), українська (2-6,8), англійська (7)
Аудіо-кодек:
Бітрейт: 625-1050 кб/с
Джерело: bandcamp
Додаткова інформація:
Лог DRM
foobar2000 1.4.2 / Dynamic Range Meter 1.1.1
log date: 2020-12-27 08:28:00

--------------------------------------------------------------------------------
Analyzed: Gjallarhorn / Memories, Nightmares, Ash
--------------------------------------------------------------------------------

DR Peak RMS Duration Track
--------------------------------------------------------------------------------
DR5 -0.02 dB -6.92 dB 4:02 01-In The Breath Of The Wind
DR4 -0.02 dB -5.40 dB 5:11 02-On The Plundered Graves
DR8 -3.89 dB -13.64 dB 0:40 03-Intro
DR4 -0.02 dB -5.55 dB 8:01 04-Memories, Nightmares, Ash
DR4 -0.19 dB -5.07 dB 10:23 05-The Twilight Song
DR4 -0.21 dB -5.28 dB 6:07 06-The Ocean
DR5 -0.21 dB -5.68 dB 8:57 07-The Heathen Circle
DR5 -0.30 dB -5.69 dB 8:03 08-The Hangmen's Hill
--------------------------------------------------------------------------------

Number of tracks: 8
Official DR value: DR5

Samplerate: 44100 Hz
Channels: 2
Bits per sample: 16
Bitrate: 1029 kbps
Codec:
================================================================================
Лог якостi

-----------------------

DON'T MODIFY THIS FILE

-----------------------

PERFORMER: auCDtect Task Manager, ver. 1.6.0 RC1 build 1.6.0.1
Copyright (c) 2008-2010 y-soft. All rights reserved
http://y-soft.org

ANALYZER: auCDtect: CD records authenticity detector, version 0.8.2
Copyright (c) 2004 Oleg Berngardt. All rights reserved.
Copyright (c) 2004 Alexander Djourik. All rights reserved.

FILE: 08 - The Hangmen's Hill.
Size: 62304096 Hash: 3B7225B69D30A9837C077DD9C7329E5B Accuracy: -m40
Conclusion: CDDA 100%
Signature: 5FF234978EF06E856A358B7B00D642B36F1F459D
FILE: 07 - The Heathen Circle.
Size: 68634525 Hash: D373658805F9217DA4D292B0C89321BF Accuracy: -m40
Conclusion: CDDA 100%
Signature: 69FF8577D7A396F5B5B0B89F707F0DC54E5F5E20
FILE: 06 - The Ocean.
Size: 48382055 Hash: 3BB63345127200E7D43B8807817E252C Accuracy: -m40
Conclusion: CDDA 100%
Signature: 4F869E6A62195AE41788A4863AA472A08FFB5F90
FILE: 05 - The Twilight Song.
Size: 77342763 Hash: F8C2C0254B731326F5CC8924E3AE8FAE Accuracy: -m40
Conclusion: CDDA 100%
Signature: 59661EC7DCE5B946424C6CBD71826882E024D9AE
FILE: 04 - Memories, Nightmares, Ash.
Size: 61236546 Hash: A933D8D3CBCE1DEF8D24031A144A1E93 Accuracy: -m40
Conclusion: CDDA 100%
Signature: F0C55D3E935812A5DC9A45508F76F90EE13765A0
FILE: 03 - Intro.
Size: 3257195 Hash: 702CDE1D538C440FF25C92CD0769A325 Accuracy: -m40
Conclusion: CDDA 100%
Signature: 4E03220517B8D9B4FD072DF67BCE26E44B442DEF
FILE: 02 - On The Plundered Graves.
Size: 39452166 Hash: 1D1B62031A75E79CD837680731CED726 Accuracy: -m40
Conclusion: CDDA 100%
Signature: 17A5F6A0581FCC43647FB496FB057869AF69C339
FILE: 01 - In The Breath Of The Wind.
Size: 22891285 Hash: 18A6F220B0B2AD1E92E54651A7FF80D7 Accuracy: -m40
Conclusion: CDDA 49%
Signature: 22C4DAA8E7FBF8ACCC04628CAE12A7B6FAC3FFAA


Якщо Ви справді бажаєте підтримати українське - після прослуховування, якщо музика вам сподобалась, придбайте ліцензійний диск. Підтримаймо вітчизняних виконавців!


Срібний реліз (на рейтинг впливає 50% завантаженого)
 Трекер:    Зареєстрований   

Завантажити / скачати українську музику



відео для новачків



 Зареєстрований:   2021-01-04 22:36
 Розмір:   366 MB 
 Оцінка музики:   9.5/10 (Голосів: 2)
   
Ваш часовий пояс: GMT + 2 Години

Нова тема   Відповісти