Випробування невинуватістю (Сезон 1) / Ordeal by Innocence (Season 1) (2018) 1080p Ukr/Eng

Нові коментарі

Нова тема   Відповісти
Автор Повідомлення
Anonymous 







2021-01-04 16:43  
Випробування невинуватістю (Сезон 1) / Ordeal by Innocence (Season 1) (2018) 1080p Ukr/Eng

Випробування невинуватістю (Сезон 1) / Ordeal by Innocence (Season 1) (2018) 1080p Ukr/Eng


Жанр: драма, детектив, трилер, кримінальний
Країна: США



Кінокомпанія: BBC, Amazon
Режисер: Сандра Голдбахер
Актори: Еліс Ів, Елінор Томлінсон, Білл Найі, Ентоні Бойл, Анна Ченселлор, Морвен Крісті, Крістал Кларк, Крістіан Кук, Меттью Гуд, Елла Пернелл та інші.

Сюжет:
Різдво 1954 року. Багатий філантроп Рейчел Аргайл убитий в своєму сімейному маєтку. За підозрою у вбивстві заарештовують його прийомного сина Джека. Джек люто протестує проти своєї причетності до злочину...


Тривалість: 1 серія: ~45:00 (цілком серій: 4)
Перелік серій
Episode #1.1
Episode #1.2
Episode #1.3
Episode #1.4
Якість: 1080p
Відео:
кодек:
розмір кадру: 1920x96
бітрейт: 5 781 кб/с
примітка: телеканал показав 4 серійну версію, тож я не став зводити під , бо там багато сцен поміняно місцями, але якщо хтось хоче з цим помучитись, то запис можна завантажити тут.

Аудіо # 1:
мова: українська
озвучення: професійне, псевдодубляж |
кодек: 2.0 (стерео)
бітрейт: 192 кб/с
примітка: запис з DVB-T2
Інформація про озвучення:
Ролі озвучили: Дмитро Нежельський, Михайло Войчук, Дмитро Вікулов, Андрій Соболєв, Юлія Малахова та ще один жіночий.

Аудіо # 2:
мова: англійська
озвучення: оригінал
кодек: E- 5.1
бітрейт: 192 кб/с
Info
General
Unique ID : 250711640483769246204508531223928443135 (0xBC9D4E3A9562B25DB1B4BE81D9E310FF)
Complete name : D:\Ordeal by Innocence (Season 1) (2018) HDTV 1080p [UKR_ENG] [Hurtom]\Episode 1.
Format :
Format version : Version 4 / Version 2
File size : 1.89 GiB
Duration : 43 min 51 s
Overall bit rate : 6 167 kb/s
Encoded date : UTC 2021-01-04 12:45:40
Writing application : v51.0.0 ('I Wish') 32-bit
Writing library : libebml v1.4.0 + v1.6.2

Video
ID : 1
Format : AVC
Format/Info : Advanced Video Codec
Format profile : [email protected]
Format settings, CABAC : Yes
Format settings, RefFrames : 4 frames
Codec ID : V_MPEG4/ISO/AVC
Duration : 43 min 51 s
Bit rate : 5 781 kb/s
Width : 1 920 pixels
Height : 960 pixels
Display aspect ratio : 2.000
Frame rate mode : Constant
Frame rate : 25.000 FPS
Color space : YUV
Chroma subsampling : 4:2:0
Bit depth : 8 bits
Scan type : Progressive
Bits/(Pixel*Frame) : 0.125
Stream size : 1.77 GiB (94%)
Writing library : core 157 r2935 545de2f
Encoding settings : opencl=1 / cabac=1 / ref=4 / deblock=1:-2:-2 / analyse=0x3:0x133 / me=umh / subme=8 / psy=1 / psy_rd=1.00:0.00 / mixed_ref=1 / me_range=24 / chroma_me=1 / trellis=2 / 8x8dct=1 / cqm=0 / deadzone=21,11 / fast_pskip=0 / chroma_qp_offset=-2 / threads=24 / lookahead_threads=4 / sliced_threads=0 / nr=0 / decimate=1 / interlaced=0 / bluray_compat=0 / constrained_intra=0 / bframes=3 / b_pyramid=2 / b_adapt=2 / b_bias=0 / direct=3 / weightb=1 / open_gop=0 / weightp=2 / keyint=250 / keyint_min=25 / scenecut=40 / intra_refresh=0 / rc_lookahead=60 / rc=crf / mbtree=1 / crf=17.0 / qcomp=0.60 / qpmin=0 / qpmax=69 / qpstep=4 / ip_ratio=1.40 / aq=1:1.00
Language : French
Default : Yes
Forced : No
Color range : Limited
Matrix coefficients : BT.709

Audio #1
ID : 2
Format : AC-3
Format/Info : Audio Coding 3
Format settings, Endianness : Big
Codec ID : A_AC3
Duration : 43 min 51 s
Bit rate mode : Constant
Bit rate : 192 kb/s
Channel(s) : 2 channels
Channel positions : Front: L R
Sampling rate : 48.0 kHz
Frame rate : 31.250 FPS (1536 SPF)
Bit depth : 16 bits
Compression mode : Lossy
Stream size : 60.2 MiB (3%)
Title : Inter
Language : Ukrainian
Service kind : Complete Main
Default : Yes
Forced : Yes

Audio #2
ID : 3
Format : E-AC-3
Format/Info : Enhanced Audio Coding 3
Format settings, Endianness : Big
Codec ID : A_EAC3
Duration : 43 min 51 s
Bit rate mode : Constant
Bit rate : 192 kb/s
Channel(s) : 6 channels
Channel positions : Front: L C R, Side: L R, LFE
Sampling rate : 48.0 kHz
Frame rate : 187.500 FPS (256 SPF)
Compression mode : Lossy
Stream size : 60.2 MiB (3%)
Title : Original
Language : English
Service kind : Complete Main
Default : No
Forced : No
Скріншоти
Джерело: &
Особиста оцінка: 0 - не дивився


Бронзовий реліз (на рейтинг впливає 75% завантаженого)
 Трекер:    Зареєстрований   

Завантажити / скачати серіал українською



відео для новачків



 Зареєстрований:   2021-01-04 16:43
 Розмір:   6.97 GB 
 Оцінка серіалу:   10/10 (Голосів: 4)
   
Ваш часовий пояс: GMT + 2 Години

Нова тема   Відповісти