Кубок Дієго Марадони 2020/21 | Бока Хуніорс - Рівер Плейт | Фаза чемпіонів, тур 4 | Футбол 3 (02.01.2021) IPTV

Нові коментарі

Нова тема   Відповісти
Автор Повідомлення
misamisk 
Поважний учасник


З нами з: 16.10.17
Востаннє: 05.03.21
Повідомлень: 157

2021-01-03 17:34  
Кубок Дієго Марадони 2020/21 | Бока Хуніорс - Рівер Плейт | Фаза чемпіонів, тур 4 | Футбол 3 (02.01.2021) IPTV

Кубок Дієго Марадони 2020/21 | Бока Хуніорс - Рівер Плейт | Фаза чемпіонів, тур 4 | Футбол 3 (02.01.2021) IPTV


Телеканал: Футбол 3
Опис:
Двісті п'ятдесят перше "Суперкласико" відбулося 2 січня 2020 року у Буенос-Айресі на стадіоні "Ла Бомбонера".
Матч обслуговували:

Рефері: Фернандо Рапальїні
Асистенти рефері: Дієго Єміль Бонфа, Габрієль Чаде
Четвертий арбітр: Хорхе Баліньйо


Тривалість: 01:44:19
Якість:
Відео:
кодек:
розмір кадру: 1920x1080
бітрейт: ~3500 кб/с

Аудіо:
мова: українська
переклад: одноголосий закадровий | Богдан Костюк
кодек: 2.0
бітрейт: 129 кб/с
Стартові склади
Бока Хуніорс:
1. Естебан Андрада, 3. Емануель Мас, 24. Карлос Іск'єрдос, 5. Карлос Самбрано, 4. Хуліо Буфаріні, 14. Ніколас Капальдо, 21. Хорман Кампусано, 8. Едвін Кардона, 22. Себастьяне Вілья, 19. Мауро Сарате , 9. Рамон Абіла.
Тренер: Міґель Анхель Руссо

Рівер Плейт:
1. Франко Армані, 17. Пауло Діас, 22. Хав'єр Пінола, 2. Роберт Рохас, 29. Ґонсало Монтьєль, 24. Енцо Перес, 11. Ніколас де ла Круз, 5. Бруно Сукуліні, 8. Хорхе Караскаль, 19. Рафаель Боре, 18. Лукас Бельтран.
Тренер: Марсело Ґальярдо
Info
Код:
[center]General
Unique ID                                : 179261613512278500989872219509963623843 (0x86DC87EB4E8AA21E7BB6B8B47D600DA3)
Complete name                            : Copa.Diego.Armando.Maradona.2020-21.Fase.Campeon.Matchday.4.Boca.Juniors-River.Plate.IPTV.1080p.
Format                                   :
Format version                           : Version 4
File size                                : 2.64 GiB
Duration                                 : 1 h 44 min
Overall bit rate                         : 3 626 kb/s
Movie name                               : Copa Diego Armando Maradona 2020/21. Fase Campeon. Matchday 4. Boca Juniors - River Plate
Encoded date                             : UTC 2021-01-03 14:43:02
Writing application                      : v24.0.0 ('Beyond The Pale') 64-bit
Writing library                          : libebml v1.3.6 + v1.4.9

Video
ID                                       : 1
Format                                   : AVC
Format/Info                              : Advanced Video Codec
Format profile                           : [email protected]
Format settings                          : 2 Ref Frames
Format settings, CABAC                   : No
Format settings, Reference frames        : 2 frames
Format settings, GOP                     : M=3, N=25
Codec ID                                 : V_MPEG4/ISO/AVC
Duration                                 : 1 h 44 min
Bit rate                                 : 3 494 kb/s
Width                                    : 1 920 pixels
Height                                   : 1 080 pixels
Display aspect ratio                     : 16:9
Frame rate mode                          : Constant
Frame rate                               : 25.000 FPS
Color space                              : YUV
Chroma subsampling                       : 4:2:0
Bit depth                                : 8 bits
Scan type                                : Progressive
Bits/(Pixel*Frame)                       : 0.067
Stream size                              : 2.55 GiB (96%)
Title                                    : Copa Diego Armando Maradona 2020/21. Fase Campeon. Matchday 4. Boca Juniors - River Plate
Language                                 : English
Default                                  : Yes
Forced                                   : No

Audio
ID                                       : 2
Format                                   : LC
Format/Info                              : Advanced Audio Codec Low Complexity
Codec ID                                 : A_AAC-2
Duration                                 : 1 h 44 min
Bit rate                                 : 129 kb/s
Channel(s)                               : 2 channels
Channel layout                           : L R
Sampling rate                            : 48.0 kHz
Frame rate                               : 46.875 FPS (1024 SPF)
Compression mode                         : Lossy
Delay relative to video                  : 611 ms
Stream size                              : 96.2 MiB (4%)
Title                                    : Commentaries by Bohdan Kostiuk
Language                                 : Ukrainian
Default                                  : Yes
Forced                                   : No[/center]
Скріншоти
Особиста оцінка: 10 - без зайвих вагань рекомендую всім!


Золотий реліз (завантажене не впливає на рейтинг)
 Трекер:    Зареєстрований   

Завантажити / скачати торрент



відео для новачків



 Зареєстрований:   2021-01-03 17:34
 Розмір:   2.64 GB 
 Оцінка:   10/10 (Голосів: 4)
   
misamisk 
Поважний учасник


З нами з: 16.10.17
Востаннє: 05.03.21
Повідомлень: 157

2021-01-03 18:21  
На жаль, через технічні проблеми, сьогодні не вдалося записати жодного матчу АПЛ, тому вирішив викласти вже аргентинське Суперкласико. Сподіваюся, завтра запис піде краще, і я зможу записати хоча б щось.
ua 8899 
Новенький


З нами з: 28.07.20
Востаннє: 27.02.21
Повідомлень: 2

2021-01-18 15:55  
misamisk
неможливо завантажити

Додано через 44 хвилини 34 секунди:

допоможіть завантажити

misamisk 
Поважний учасник


З нами з: 16.10.17
Востаннє: 05.03.21
Повідомлень: 157

2021-01-18 17:52  
ua 8899
Тут проблема може бути у Вашому рейтингу (він занадто малий, трекер може не дозволити паралельні завантаження)

ua 8899 
Новенький


З нами з: 28.07.20
Востаннє: 27.02.21
Повідомлень: 2

2021-01-18 19:44  
торент працює тільки нема швидкості також сп 0

Додано через 18 секунд:

торент працює тільки нема швидкості також сп 0

Ваш часовий пояс: GMT + 2 Години

Нова тема   Відповісти