Пункт призначення. Аквапарк / Aquaslash (2019) 1080p Eng | sub Ukr

Нові коментарі

Нова тема   Відповісти
Автор Повідомлення
killer2015 
VIP


З нами з: 30.01.15
Востаннє: 22.04.21
Повідомлень: 495

2021-01-03 13:40  
Пункт призначення. Аквапарк / Aquaslash (2019) 1080p Eng | sub Ukr

Пункт призначення. Аквапарк / Aquaslash (2019) 1080p Eng | sub Ukr


Жанр: Жахи
Країна: Канада



Кінокомпанія: Black Pills
Режисер: Рено Ґотьє
Актори: Ланіса Доун, Ніколас Фонтейн, Бріттані Дрісделл, Мадлен Гарві, Пол Зінно, Нік Вокер, Чіп Чуїпка, Ховард Розенштейн, Райан Алі, Камерон Геллер

Сюжет:
Події фільму відбуваються в літньому аквапарку під назвою «Мокра Долина», де щодня відпочивають і веселяться сотні людей. Одного разу компанія молодих друзів відправляється туди, щоб відсвяткувати кінець навчального року і провести незабутній час разом. Однак скоро свято псує невідомий маніяк, який ставить пастки всюди і перетворює це місце в криваву бійню.


Тривалість: 01:11:19
Якість: 1080p
Відео:
кодек:
розмір кадру: 1920x1080
бітрейт: 7 318 кб/с

Аудіо:
мова: англійська
переклад: оригінал
кодек: E- 2.0
бітрейт: 224 кб/с

Субтитри:
мова: українська
(власний переклад з оригіналу)
тип: програмні (м'які)
формат: *.srt
МІ
General
Unique ID : 184820562053739739128079035923651146354 (0x8B0B253E29A74CCCE92D21229E98B272)
Complete name : G:\Фільми\AQUASLASH_2019_WEB-DL_1080p\AQUASLASH_2019_WEB-DL_1080p.
Format :
Format version : Version 4
File size : 3.76 GiB
Duration : 1 h 11 min
Overall bit rate mode : Constant
Overall bit rate : 7 546 kb/s
Movie name : AQUASLASH_2019_WEB-DL_1080p_AMAZON-BLUEBIRD
Encoded date : UTC 2021-01-03 10:20:17
Writing application : v47.0.0 ('Black Flag') 64-bit
Writing library : libebml v1.3.10 + v1.5.2
Cover : Yes
Attachments : cover.4.png

Video
ID : 1
Format : AVC
Format/Info : Advanced Video Codec
Format profile : [email protected]
Format settings : CABAC / 4 Ref Frames
Format settings, CABAC : Yes
Format settings, Reference frames : 4 frames
Codec ID : V_MPEG4/ISO/AVC
Duration : 1 h 11 min
Bit rate mode : Constant
Bit rate : 7 318 kb/s
Nominal bit rate : 10 000 kb/s
Width : 1 920 pixels
Height : 1 080 pixels
Display aspect ratio : 16:9
Frame rate mode : Constant
Frame rate : 23.976 (24000/1001) FPS
Color space : YUV
Chroma subsampling : 4:2:0
Bit depth : 8 bits
Scan type : Progressive
Bits/(Pixel*Frame) : 0.147
Stream size : 3.65 GiB (97%)
Title : AQUASLASH_2019_WEB-DL_1080p_AMAZON-BLUEBIRD
Default : Yes
Forced : No
Color range : Limited
Color primaries : BT.709
Transfer characteristics : BT.709
Matrix coefficients : BT.709

Audio
ID : 2
Format : E-AC-3
Format/Info : Enhanced AC-3
Commercial name : Dolby Digital Plus
Codec ID : A_EAC3
Duration : 1 h 11 min
Bit rate mode : Constant
Bit rate : 224 kb/s
Channel(s) : 2 channels
Channel layout : L R
Sampling rate : 48.0 kHz
Frame rate : 31.250 FPS (1536 SPF)
Compression mode : Lossy
Stream size : 114 MiB (3%)
Title : [ORIGINAL] DD+ 2.0 @ 224 kbps (Amazon)
Language : English
Service kind : Complete Main
Default : No
Forced : No
Скріншоти







Джерело:
Особиста оцінка: 0 - не дивився


Золотий реліз (завантажене не впливає на рейтинг)
 Трекер:    Зареєстрований   

Завантажити / скачати фільм українською



відео для новачків



 Зареєстрований:   2021-01-03 13:40
 Розмір:   3.76 GB 
 Оцінка фільму:   2.8/10 (Голосів: 11)
   
killer2015 
VIP


З нами з: 30.01.15
Востаннє: 22.04.21
Повідомлень: 495

2021-01-03 13:42  

mihail91 
Новенький


З нами з: 25.09.18
Востаннє: 11.04.21
Повідомлень: 7

2021-01-04 23:17  
Коли чекати український дубляж?
Vitt 
Поважний учасник


З нами з: 17.01.11
Востаннє: 23.04.21
Повідомлень: 231

2021-01-05 16:14  
Слабенько і розтягнуто.
3/10.
І як завжди - назва фільму :(
Ну до чого тут "Пункт призначення" ?!

killer2015 
VIP


З нами з: 30.01.15
Востаннє: 22.04.21
Повідомлень: 495

2021-01-06 14:11  
Vitt написано:
Ну до чого тут "Пункт призначення" ?!

Це просто приманка для заохочення глядачів)

Vitt 
Поважний учасник


З нами з: 17.01.11
Востаннє: 23.04.21
Повідомлень: 231

2021-01-06 18:04  
Та розумію.
Я до того, що напевно не дочекаюсь, коли наші(?) прокатчики перестануть займатися цією дешевою фігнею :(

Ваш часовий пояс: GMT + 2 Години

Нова тема   Відповісти