Рома / Roma (2018) 720p Ukr/Spa | Sub Spa/Eng [The Criterion Collection]

Нові коментарі

Нова тема   Відповісти
Автор Повідомлення
Anonymous 







2021-01-02 22:25  
Рома / Roma (2018) 720p Ukr/Spa | Sub Spa/Eng [The Criterion Collection]

Рома / Roma (2018) 720p Ukr/Spa | Sub Spa/Eng [The Criterion Collection]


Жанр: драма
Країна: Мексика, США
Кінокомпанія: Esperanto Filmoj, Participant Media
Режисер: Альфонсо Куарон
Актори: Марина Де Тавіра, Марко Граф, Яліца Апарісіо, Даніела Демеса, Діего Кортіна Отрі, Карлос Перальта, Латін Ловер, Енок Леаньо та інші

Сюжет:
Історія життя звичайної сім'ї середнього класу в Мехіко на початку 1970-х років. Батько рідко буває вдома, а мати виховує чотирьох дітей. Доля наших героїв змінюється через студентські заворушення під час католицького свята 10 липня 1971 року, коли демонстрантів розстріляли солдати...

Тривалість: 02:14:58
Якість: [The Criterion Collection]

Відео:
кодек:
розмір кадру: 1280 x 536
бітрейт: 3 077 кб/с

Аудіо # 1:
мова: українська
озвучення: багатоголосе закадрове | DniproFilm
кодек: AC-3 5.1
бітрейт: 384 кб/с

Аудіо # 2:
мова: іспанська
озвучення: оригінал
кодек: E-AC-3 7.1
бітрейт: 1537 кб/с

Субтитри # 1-3: (Forced, Full, Latin American SDH)
мова: іспанська
тип: програмні (м'які)
формат: *.srt

Субтитри # 4: (Full)
мова: англійська
тип: програмні (м'які)
формат: *.srt


Інформація про файл
Код:
General
Unique ID                                : 252152480789479333074543887688689580169 (0xBDB2CD23FD2F0EDCE3E18688E214F889)
Complete name                            : Roma (2018) [Criterion Collection] 720p [UKR_SPA] [Hurtom].
Format                                   :
Format version                           : Version 4
File size                                : 4.71 GiB
Duration                                 : 2 h 14 min
Overall bit rate                         : 5 000 kb/s
Movie name                               : Рома / Roma (2018) [Criterion Collection]
Encoded date                             : UTC 2021-01-02 20:19:58
Writing application                      : v20.0.0 ('I Am The Sun') 64-bit
Writing library                          : libebml v1.3.5 + v1.4.8
Cover                                    : Yes
Attachments                              : Cover.jpg

Video
ID                                       : 1
Format                                   : AVC
Format/Info                              : Advanced Video Codec
Format profile                           : [email protected]
Format settings                          : CABAC / 12 Ref Frames
Format settings, CABAC                   : Yes
Format settings, Reference frames        : 12 frames
Codec ID                                 : V_MPEG4/ISO/AVC
Duration                                 : 2 h 14 min
Bit rate                                 : 3 077 kb/s
Width                                    : 1 280 pixels
Height                                   : 536 pixels
Display aspect ratio                     : 2.40:1
Frame rate mode                          : Constant
Frame rate                               : 23.976 (24000/1001) FPS
Color space                              : YUV
Chroma subsampling                       : 4:2:0
Bit depth                                : 8 bits
Scan type                                : Progressive
Bits/(Pixel*Frame)                       : 0.187
Stream size                              : 2.90 GiB (62%)
Title                                    : Рома / Roma (2018) [Criterion Collection]
Writing library                          : core 160 r3000 33f9e14
Encoding settings                        : cabac=1 / ref=12 / deblock=1:-3:-2 / analyse=0x3:0x133 / me=umh / subme=11 / psy=1 / psy_rd=1.02:0.10 / mixed_ref=1 / me_range=48 / chroma_me=1 / trellis=2 / 8x8dct=1 / cqm=0 / deadzone=21,11 / fast_pskip=0 / chroma_qp_offset=-3 / threads=12 / lookahead_threads=2 / sliced_threads=0 / nr=0 / decimate=0 / interlaced=0 / bluray_compat=0 / constrained_intra=0 / bframes=8 / b_pyramid=2 / b_adapt=2 / b_bias=0 / direct=1 / weightb=1 / open_gop=0 / weightp=2 / keyint=240 / keyint_min=23 / scenecut=40 / intra_refresh=0 / rc_lookahead=60 / rc=crf / mbtree=0 / crf=17.0 / qcomp=0.65 / qpmin=0 / qpmax=69 / qpstep=4 / vbv_maxrate=50000 / vbv_bufsize=62500 / crf_max=0.0 / nal_hrd=none / filler=0 / ip_ratio=1.40 / pb_ratio=1.30 / aq=3:1.00
Language                                 : English
Default                                  : Yes
Forced                                   : No

Audio #1
ID                                       : 2
Format                                   : AC-3
Format/Info                              : Audio Coding 3
Commercial name                          : Dolby Digital
Codec ID                                 : A_AC3
Duration                                 : 2 h 14 min
Bit rate mode                            : Constant
Bit rate                                 : 384 kb/s
Channel(s)                               : 6 channels
Channel layout                           : L R C LFE Ls Rs
Sampling rate                            : 48.0 kHz
Frame rate                               : 31.250 FPS (1536 SPF)
Compression mode                         : Lossy
Stream size                              : 371 MiB (8%)
Title                                    : AC-3 / 5.1 Ch / 384 kbps / MVO / DniproFilm
Language                                 : Ukrainian
Service kind                             : Complete Main
Default                                  : Yes
Forced                                   : Yes

Audio #2
ID                                       : 3
Format                                   : E-AC-3
Format/Info                              : Enhanced AC-3
Commercial name                          : Dolby Digital Plus
Format profile                           : Blu-ray Disc
Codec ID                                 : A_EAC3
Duration                                 : 2 h 14 min
Bit rate mode                            : Constant
Bit rate                                 : 1 536 kb/s
Channel(s)                               : 6 channels
Channel(s)_Original                      : 8 channels
ChannelLayout_Original                   : L R C LFE Ls Rs Lrs Rrs
Sampling rate                            : 48.0 kHz
Frame rate                               : 31.250 FPS (1536 SPF)
Compression mode                         : Lossy
Stream size                              : 1.45 GiB (31%)
Title                                    : E-AC-3 / 7.1 Ch / 1536 kbps / Original
Language                                 : Spanish
Service kind                             : Complete Main
Default                                  : No
Forced                                   : No

Text #1
ID                                       : 4
Format                                   : UTF-8
Codec ID                                 : S_TEXT/UTF8
Codec ID/Info                            : UTF-8 Plain Text
Duration                                 : 2 h 13 min
Bit rate                                 : 2 b/s
Count of elements                        : 57
Stream size                              : 2.01 KiB (0%)
Title                                    : Forced
Language                                 : Spanish
Default                                  : No
Forced                                   : No

Text #2
ID                                       : 5
Format                                   : UTF-8
Codec ID                                 : S_TEXT/UTF8
Codec ID/Info                            : UTF-8 Plain Text
Duration                                 : 2 h 10 min
Bit rate                                 : 33 b/s
Count of elements                        : 979
Stream size                              : 31.9 KiB (0%)
Title                                    : Full
Language                                 : Spanish
Default                                  : No
Forced                                   : No

Text #3
ID                                       : 6
Format                                   : UTF-8
Codec ID                                 : S_TEXT/UTF8
Codec ID/Info                            : UTF-8 Plain Text
Duration                                 : 2 h 14 min
Bit rate                                 : 51 b/s
Count of elements                        : 1636
Stream size                              : 50.7 KiB (0%)
Title                                    : Latin American SDH
Language                                 : Spanish
Default                                  : No
Forced                                   : No

Text #4
ID                                       : 7
Format                                   : UTF-8
Codec ID                                 : S_TEXT/UTF8
Codec ID/Info                            : UTF-8 Plain Text
Duration                                 : 2 h 8 min
Bit rate                                 : 30 b/s
Count of elements                        : 886
Stream size                              : 29.1 KiB (0%)
Title                                    : Full
Language                                 : English
Default                                  : No
Forced                                   : No

Menu
00:00:00.000                             : en:"You Need a Bath, Borras."
00:07:22.275                             : en:"Hey. I Like Being Dead."
00:13:24.345                             : en:"Dad's Home Early!"
00:22:00.402                             : en:"I Owe My Life to Martial Arts."
00:27:32.776                             : en:"No, It's Creedence vs. Beatles."
00:31:54.162                             : en:"We'll Be Here, Antonio."
00:36:46.495                             : en:"It's Just That, I'm Late."
00:41:03.252                             : en:"Why Is Cleo Crying?"
00:46:49.640                             : en:"With Some Rest, She'll Be Fine."
00:52:20.470                             : en:"I'm Pregnant, Not Sick."
01:02:38.212                             : en:"The Forest Is Burning!"
01:08:15.633                             : en:"I'll See You at the Movies!"
01:13:58.142                             : en:"I Just Came to Give Fermin His Jacket."
01:17:57.130                             : en:"The Only Miracle Resides Within Your Own Will."
01:23:30.630                             : en:"The Little One's Yours."
01:25:57.152                             : en:"Paco, Tono, Stop!"
01:29:22.315                             : en:"We Are Alone."
01:31:57.929                             : en:"My Maid Needs a Crib."
01:35:14.625                             : en:"They're Killing Us!"
01:37:50.698                             : en:"Cleo, You're Having Contractions."
01:42:25.848                             : en:"How Is the Heart Rate?"
01:47:08.588                             : en:"I Wanted a Smaller Car."
01:51:51.830                             : en:"Beach! Beach!"
01:58:13.002                             : en:"Cleo Can't Swim."
02:03:42.581                             : en:"I Have So Much to Tell You."
Лог кодування
Код:
[info]: frame I:966 Avg QP:14.62 size:120105
[info]: frame P:40542 Avg QP:16.50 size: 34501
[info]: frame B:152661 Avg QP:17.41 size: 10484
[info]: consecutive B-frames: 0.9% 1.0% 5.9% 32.2% 16.9% 28.6% 5.2% 5.1% 4.2%
Світлини




Джерело: &
Особиста оцінка: 0 - не дивився


Авторський реліз (завантажувати можна без реєстрації)
 Трекер:    Зареєстрований   

Завантажити / скачати фільм українською



відео для новачків



 Зареєстрований:   2021-01-02 22:25
 Розмір:   4.71 GB 
 Оцінка фільму:   10/10 (Голосів: 2)
   
Інші релізи
   Рома / Roma (2018) AVC Ukr/Spa | Sub Spa/Eng [The Criterion Collection] -Star-Lord-  10 / 0   2.16 GB   2021-01-06 13:18 
   Рома / Roma (2018) 1080p Ukr/Spa | Sub Spa/Eng [The Criterion Collection] -Star-Lord-  9 / 1   15.32 GB   2021-01-02 22:29 
   Рома / Roma (2018) 720p Ukr/Spa | Sub Eng/Multi ssTAss  6 / 0   3.06 GB   2019-02-20 15:18 
   Рома / Roma (2018) AVC ssTAss  7 / 0   1.37 GB   2019-02-20 15:18 
   Рома / Roma (2018) DniproFilm  4 / 0   2.02 GB   2018-12-26 19:27 
   Рома / Roma (2018) 720p Ukr/Spa DniproFilm  5 / 0   4.68 GB   2018-12-26 19:27 
   Рома / Roma (2018) 1080p Ukr/Spa DniproFilm  4 / 0   7.49 GB   2018-12-26 19:27 
Ваш часовий пояс: GMT + 2 Години

Нова тема   Відповісти