Несвяті / Ain't Them Bodies Saints (2013) Remux 1080p Ukr/Eng | Sub Eng

Нові коментарі

Нова тема   Відповісти
Автор Повідомлення
Anonymous 







2021-01-02 19:03  
Несвяті / Ain't Them Bodies Saints (2013) Remux 1080p Ukr/Eng | Sub Eng

Несвяті / Ain't Them Bodies Saints (2013) Remux 1080p Ukr/Eng | Sub Eng


Жанр: драма, кримінальний, романтичний
Країна: США



Кінокомпанія: Sailor Bear, Parts and Labor, Primary Productions
Режисер: Девід Лоурі
Актори: Кейсі Аффлек, Руні Мара, Бен Фостер, Вілл Бейнбрінк, Авґустін Фріззелл, Девід Зеллнер та інші.

Сюжет:
Техас, 1970-ті роки. Потрапивши в засідку, троє молодих злочинців важко ранять одного з поліцейських, що оточили їх. Ватажок банди Боб Малдун (Кейсі Аффлек) бере всю провину на себе, хоча фатальний постріл зробила його дівчина Рут (Руні Мара), і відправляється за ґрати на багато років. Вже у в'язниці він дізнається, що у нього народилася дочка Сільвія. Щоб побачити дівчинку Боб здійснює втечу за втечею, але вирватися на волю йому вдається тільки через чотири довгих роки. Його сліди ведуть в протилежному від рідних місць напрямку, однак техаська поліція (і насамперед Патрік Віллер (Бен Фостер) — офіцер, поранений у тій давній перестрілці) вважає, що утікач може з'явитися тільки там, де знаходиться маленька Сільвія. Все готово до полювання на Малдуна, але, виявляється, що не тільки служителі закону хочуть змусити Боба сповна заплатити за давнім рахунками.


Тривалість: 01:36:00
Якість: Remux 1080p
Відео:
кодек:
розмір кадру: 1920 x 1080
бітрейт: 24 мб/с

Аудіо # 1:
мова: українська
переклад: багатоголосий закадровий
кодек: 2.0 (стерео)
бітрейт: 192 кб/с

Аудіо # 2:
мова: англійська
переклад: оригінал
кодек: -HD МA 5.1
бітрейт: 1835 кб/с

Субтитри:
мова: англійська
тип: програмні (м'які)
формат: *.srt
Info
Код:
General
Complete name               : Ain't Them Bodies Saints (2013) Remux 1080p [UKR_ENG] [Hurtom].
Format                      :
Format version              : Version 4
File size                   : 17.5 GiB
Duration                    : 1 h 36 min
Overall bit rate mode       : Variable
Overall bit rate            : 26.1 Mb/s
Movie name                  : Ain't Them Bodies Saints (2013)
Encoded date                : UTC 2021-01-01 10:47:57
Writing application         : v46.0.0 ('No Deeper Escape') 64-bit
Writing library             : libebml v1.3.10 + v1.5.2

Video
ID                          : 1
Format                      : AVC
Format/Info                 : Advanced Video Codec
Format profile              : [email protected]
Format settings             : CABAC / 4 Ref Frames
Format settings, CABAC      : Yes
Format settings, Reference  : 4 frames
Format settings, GOP        : M=3, N=24
Codec ID                    : V_MPEG4/ISO/AVC
Duration                    : 1 h 36 min
Bit rate mode               : Variable
Bit rate                    : 24.0 Mb/s
Maximum bit rate            : 35.0 Mb/s
Width                       : 1 920 pixels
Height                      : 1 080 pixels
Display aspect ratio        : 16:9
Frame rate mode             : Constant
Frame rate                  : 23.976 (24000/1001) FPS
Standard                    : NTSC
Color space                 : YUV
Chroma subsampling          : 4:2:0
Bit depth                   : 8 bits
Scan type                   : Progressive
Bits/(Pixel*Frame)          : 0.483
Stream size                 : 16.1 GiB (92%)
Language                    : English
Default                     : Yes
Forced                      : No
Color range                 : Limited
Color primaries             : BT.709
Transfer characteristics    : BT.709
Matrix coefficients         : BT.709

Audio #1
ID                          : 2
Format                      : AC-3
Format/Info                 : Audio Coding 3
Commercial name             : Dolby Digital
Codec ID                    : A_AC3
Duration                    : 1 h 36 min
Bit rate mode               : Constant
Bit rate                    : 192 kb/s
Channel(s)                  : 2 channels
Channel layout              : L R
Sampling rate               : 48.0 kHz
Frame rate                  : 31.250 FPS (1536 SPF)
Bit depth                   : 16 bits
Compression mode            : Lossy
Stream size                 : 132 MiB (1%)
Title                       : MVO [Volia CINE+] 192 Kbps
Language                    : Ukrainian
Service kind                : Complete Main
Default                     : No
Forced                      : Yes

Audio #2
ID                          : 3
Format                      : XLL
Format/Info                 : Digital Theater Systems
Commercial name             : -HD Master Audio
Codec ID                    : A_DTS
Duration                    : 1 h 36 min
Bit rate mode               : Variable
Bit rate                    : 1 835 kb/s
Channel(s)                  : 6 channels
Channel layout              : C L R Ls Rs LFE
Sampling rate               : 48.0 kHz
Frame rate                  : 93.750 FPS (512 SPF)
Bit depth                   : 16 bits
Compression mode            : Lossless
Stream size                 : 1.23 GiB (7%)
Title                       : Original
Language                    : English
Default                     : Yes
Forced                      : No

Text
ID                          : 4
Format                      : PGS
Muxing mode                 : zlib
Codec ID                    : S_HDMV/PGS
Codec ID/Info               : Picture based subtitle format used on BDs/HD-DVDs
Duration                    : 1 h 35 min
Bit rate                    : 40.9 kb/s
Count of elements           : 1640
Stream size                 : 28.0 MiB (0%)
Language                    : English
Default                     : Yes
Forced                      : No
Скріншоти




Джерело:


Золотий реліз (завантажене не впливає на рейтинг)
 Трекер:    Зареєстрований   

Завантажити / скачати фільм українською



відео для новачків



 Зареєстрований:   2021-01-02 19:03
 Розмір:   17.48 GB 
 Оцінка фільму:   10/10 (Голосів: 6)
   
Інші релізи
   Несвяті / Ain't Them Bodies Saints (2013) Ukr/Eng Arsenfpu  6 / 0   1.46 GB   2020-12-12 22:14 
   Несвяті / Ain't Them Bodies Saints (2013) AVC Ukr/Eng | Sub Eng Sando7  4 / 0   2.01 GB   2019-01-15 09:38 
Ваш часовий пояс: GMT + 2 Години

Нова тема   Відповісти