Чемпіонат Англії 2020/21 | Прев'ю 17 туру | Setanta Sports | 1080p

Нові коментарі

Нова тема   Відповісти
Останній раз роздавалося misamisk (2021-02-19)
Автор Повідомлення
misamisk 
Поважний учасник


З нами з: 16.10.17
Востаннє: 27.02.21
Повідомлень: 157

2021-01-02 14:41  
Чемпіонат Англії 2020/21 | Прев'ю 17 туру | Setanta Sports | 1080p

Чемпіонат Англії 2020/21 | Прев'ю 17 туру | Setanta Sports | 1080p


Телеканал: Setanta Sports Ukraine
Опис:
Прев'ю 14 туру Англійської Прем'єр-Ліги із представленням усіх матчів та інформацією про стан команд перед вікендом.


Тривалість: 25:48
Якість:
Відео:
кодек:
розмір кадру: 1920x1080
бітрейт: ~3500 кб/с

Аудіо:
мова: українська
переклад: одноголосий закадровий | Олександр Яременко
кодек: 2.0
бітрейт: 129 кб/с
Info
General
Unique ID : 72919480780295785782448360749114484412 (0x36DBC7F9DD8DCBE99B4A5E48314A66BC)
Complete name : EPL.2020-21.Matchday.17.Preview.
Format :
Format version : Version 4
File size : 669 MiB
Duration : 25 min 48 s
Overall bit rate : 3 627 kb/s
Movie name : English Premier League 2020/21. Matchday 17 Preview
Encoded date : UTC 2021-01-02 12:30:40
Writing application : v24.0.0 ('Beyond The Pale') 64-bit
Writing library : libebml v1.3.6 + v1.4.9

Video
ID : 2
Format : AVC
Format/Info : Advanced Video Codec
Format profile : [email protected]
Format settings : 2 Ref Frames
Format settings, CABAC : No
Format settings, Reference frames : 2 frames
Format settings, GOP : M=3, N=25
Codec ID : V_MPEG4/ISO/AVC
Duration : 25 min 48 s
Bit rate : 3 495 kb/s
Width : 1 920 pixels
Height : 1 080 pixels
Display aspect ratio : 16:9
Frame rate mode : Constant
Frame rate : 25.000 FPS
Color space : YUV
Chroma subsampling : 4:2:0
Bit depth : 8 bits
Scan type : Progressive
Bits/(Pixel*Frame) : 0.067
Stream size : 645 MiB (96%)
Title : English Premier League 2020/21. Matchday 17 Preview
Language : English
Default : Yes
Forced : No

Audio
ID : 1
Format : LC
Format/Info : Advanced Audio Codec Low Complexity
Codec ID : A_AAC-2
Duration : 25 min 48 s
Bit rate : 129 kb/s
Channel(s) : 2 channels
Channel layout : L R
Sampling rate : 48.0 kHz
Frame rate : 46.875 FPS (1024 SPF)
Compression mode : Lossy
Delay relative to video : 96 ms
Stream size : 23.8 MiB (4%)
Title : Commentaries by Olexandr Yaremenko
Language : Ukrainian
Default : Yes
Forced : No
Скріншоти
Особиста оцінка: 10 - без зайвих вагань рекомендую всім!


Срібний реліз (на рейтинг впливає 50% завантаженого)
 Трекер:    Зареєстрований   

Завантажити / скачати торрент



відео для новачків



 Зареєстрований:   2021-01-02 14:41
 Розмір:   669 MB 
 Оцінка:   10/10 (Голосів: 1)
   
misamisk 
Поважний учасник


З нами з: 16.10.17
Востаннє: 27.02.21
Повідомлень: 157

2021-01-02 16:13  
Технічні проблеми продовжують мене переслідувати... Під час запису матчу "Тоттенгем - Лідс" стався збій, через який перший тайм матчу не записався. Чекаємо показу цього матчу у запису, який, найімовірніше, відбудеться у вівторок. Сподіваюся, що технічні проблеми не завадять записати матч "Крістал Пелас - Шеффілд Юнайтед" і він з'явиться на трекері вже сьогодні
Ваш часовий пояс: GMT + 2 Години

Нова тема   Відповісти