Як стати гангстером. Справжня історія / Jak zostalem gangsterem. Historia prawdziwa (2019) 1080p Pol | sub Ukr/Eng/Pol

Нові коментарі

Нова тема   Відповісти
Автор Повідомлення
ivan vyrvyvuho 
VIP


З нами з: 19.08.12
Востаннє: 12.04.21
Повідомлень: 1186

2021-01-02 11:36  
Як стати гангстером. Справжня історія / Jak zostalem gangsterem. Historia prawdziwa (2019) 1080p Pol | sub Ukr/Eng/Pol

Як стати гангстером. Справжня історія / Jak zostalem gangsterem. Historia prawdziwa (2019) 1080p Pol | sub Ukr/Eng/Pol


Жанр: кримінальний, драма, комедія
Країна: Польща



Кінокомпанія: Open Mind Production, Next Film, Moderator Inwestycje
Режисер: Мацей Кавульський / Maciej Kawulski
Актори: Марцін Ковальчик / Marcin Kowalczyk, Томаш Влосок / Tomasz Włosok, Наталія Шроедер / Natalia Szroeder, Наталія Сівец / Natalia Siwiec, Адам Вороновіч / Adam Woronowicz, Ян Фрич / Jan Frycz, Пйотр Роґуцький / Piotr Rogucki, Януш Хабьор / Janusz Chabior, Марек Дияк / Marek Dyjak, Вальдемар Каста / Waldemar Kasta, Мацей Лучковський / Maciej Łuczkowski, Адам Бобік / Adam Bobik, Йозеф Павловський / Józef Pawłowski, Матеуш Нендза / Mateusz Nędza та інші.

Сюжет:
Фільм-інструкція, як стати гангстером від головного героя, який ще в школі зрозумів, що адреналін у крові це основне до чого він прагне. Ще змалечку він вирішує стати кимось у злочинному світі й невдовзі після закінчення школи починає свою першу оборудку, чим починає прокладати свою дорогу до грошей, влади, визнання, здобуваючи друзів, кохану дівчину та наживаючи собі ворогів.


Тривалість: 02:13:27
Якість:
Відео:
кодек:
розмір кадру: 1920 х 1080
бітрейт: 5684 кб/с

Аудіо:
мова: польська
переклад: оригінал
кодек: 2.0
бітрейт: 384 кб/с

Субтитри:
мова: українська
тип: програмні (м'які)
формат: *.srt
переклад: ivan vyrvyvuho

Субтитри:
мова: англійська
тип: програмні (м'які)
формат: *.srt

Субтитри:
мова: польська
тип: програмні (м'які)
формат: *.srt
Скріншоти









Звіт Медіаінфо
Height : 1 080 pixels
Display aspect ratio : 16:9
Frame rate mode : Constant
Frame rate : 25.000 FPS
Standard : PAL
Color space : YUV
Chroma subsampling : 4:2:0
Bit depth : 8 bits
Scan type : Progressive
Bits/(Pixel*Frame) : 0.110
Stream size : 5.30 GiB (94%)
Title : CiNEMAET
Language : Polish
Default : Yes
Forced : Yes
Color range : Limited
Color primaries : BT.709
Transfer characteristics : BT.709
Matrix coefficients : BT.709

Audio
ID : 2
Format : AC-3
Format/Info : Audio Coding 3
Commercial name : Dolby Digital
Codec ID : A_AC3
Duration : 2 h 13 min
Bit rate mode : Constant
Bit rate : 384 kb/s
Channel(s) : 2 channels
Channel layout : L R
Sampling rate : 48.0 kHz
Frame rate : 31.250 FPS (1536 SPF)
Bit depth : 16 bits
Compression mode : Lossy
Stream size : 367 MiB (6%)
Title : CiNEMAET - Majsterek
Language : Polish
Service kind : Complete Main
Default : Yes
Forced : Yes

Text #1
ID : 3
Format : UTF-8
Codec ID : S_TEXT/UTF8
Codec ID/Info : UTF-8 Plain Text
Duration : 2 h 9 min
Bit rate : 82 b/s
Count of elements : 1579
Stream size : 78.4 KiB (0%)
Title : Ukr
Language : Ukrainian
Default : Yes
Forced : Yes

Text #2
ID : 4
Format : UTF-8
Codec ID : S_TEXT/UTF8
Codec ID/Info : UTF-8 Plain Text
Duration : 2 h 9 min
Bit rate : 56 b/s
Count of elements : 1579
Stream size : 53.4 KiB (0%)
Title : Eng
Language : English
Default : No
Forced : No

Text #3
ID : 5
Format : UTF-8
Codec ID : S_TEXT/UTF8
Codec ID/Info : UTF-8 Plain Text
Duration : 2 h 9 min
Bit rate : 58 b/s
Count of elements : 1579
Stream size : 55.5 KiB (0%)
Title : Pol
Language : Polish
Default : No
Forced : No
Джерело: &
Особиста оцінка: 8 - прикольний кримінал.


Золотий реліз (завантажене не впливає на рейтинг)
 Трекер:    Зареєстрований   

Завантажити / скачати фільм українською



відео для новачків



 Зареєстрований:   2021-01-02 11:36
 Розмір:   5.66 GB 
 Оцінка фільму:   10/10 (Голосів: 5)
   
Vitt 
Поважний учасник


З нами з: 17.01.11
Востаннє: 12.04.21
Повідомлень: 228

2021-01-02 13:48  
А менший розмір буде?
ivan vyrvyvuho 
VIP


З нами з: 19.08.12
Востаннє: 12.04.21
Повідомлень: 1186

2021-01-02 18:16  
Vitt 
Поважний учасник


З нами з: 17.01.11
Востаннє: 12.04.21
Повідомлень: 228

2021-01-02 20:03  
ivan vyrvyvuho написано:
Я не викладатиму.


Шкода.
Ну що ж, буду вантажити цього гіганта.

mosketrem 
Поважний учасник


З нами з: 18.06.11
Востаннє: 12.04.21
Повідомлень: 226

2021-01-06 03:29  
Чи буде озвучення?
ivan vyrvyvuho 
VIP


З нами з: 19.08.12
Востаннє: 12.04.21
Повідомлень: 1186

2021-01-09 07:52  
mosketrem
Можливо й буде Надія ще жевріє.😀

000ps 
Свій


З нами з: 08.07.14
Востаннє: 14.04.21
Повідомлень: 70

2021-01-25 20:13  
шкода, що такий розмір...
000ps 
Свій


З нами з: 08.07.14
Востаннє: 14.04.21
Повідомлень: 70

2021-02-03 18:16  
стягнув у поляків.
комедією тут і не пахне, та й драмою теж.

Ваш часовий пояс: GMT + 2 Години

Нова тема   Відповісти