Таємничий сад / The Secret Garden (2020) Remux 1080p Ukr/Eng | Sub Eng

Нові коментарі

Нова тема   Відповісти
Автор Повідомлення
Anonymous 







2021-01-02 05:40  
Таємничий сад / The Secret Garden (2020) Remux 1080p Ukr/Eng | Sub Eng



Жанр: драма, сімейний, фентезі
Країна: Велика Британія, Франція, США, Китай



Кінокомпанія: Canal+ [fr], Fundamental Films, Ciné, Heyday Films, Studio Canal, STX Films
Режисер: Марк Манден
Актори: Діксі Егерікс, Річард Ханселл, Колін Ферт, Джулі Волтерс, Едан Гайхерст, Амір Вілсон, Айзіс Девіс, Меве Дермод та інші

Сюжет:
Відлюдькувата дівчинка-сирота Мері Леннокс переїздить до маєтку свого дядька Арчибальда Крейвена. Одного разу Мері знаходить за високим парканом фантастичний сад із пальмами, яскравими квітами та екзотичними птахами. Разом із друзями вона має розкрити таємницю цього дивовижного місця.


Тривалість: 01:40:09
Якість: Remux 1080p
Відео:
кодек:
розмір кадру: 1920x1080
бітрейт: 35,4 Мбіт/с

Аудіо # 1:
мова: українська
переклад: професійний дубльований Cinema Sound Production
кодек: 5.1
бітрейт: 384 Кбіт/с

Аудіо # 2:
мова: англійська
переклад: оригінал
кодек: 5.1
бітрейт: 448 Кбіт/с

Аудіо # 3:
мова: англійська
переклад: оригінал
кодек: -HD MA 5.1
бітрейт: 3289 Кбіт/с

Субтитри:
мова: англійська
тип: програмні (м'які)
формат: *.srt
Info
General
Complete name : The Secret Garden (2020) Blu-Ray Remux 1080p [Ukr_Eng] [Hurtom].
Format :
Format version : Version 4
File size : 27.7 GiB
Duration : 1 h 40 min
Overall bit rate mode : Variable
Overall bit rate : 39.6 Mb/s
Movie name : Таємничий сад / The Secret Garden (2020)
Encoded date : UTC 2021-01-02 03:14:13
Writing application : v30.1.0 ('Forever And More') 64-bit
Writing library : libebml v1.3.6 + v1.4.9
Cover : Yes
Attachments : cover.jpg

Video
ID : 1
Format : AVC
Format/Info : Advanced Video Codec
Format profile : [email protected]
Format settings : CABAC / 4 Ref Frames
Format settings, CABAC : Yes
Format settings, RefFrames : 4 frames
Format settings, GOP : M=3, N=12
Codec ID : V_MPEG4/ISO/AVC
Duration : 1 h 40 min
Bit rate mode : Variable
Bit rate : 35.4 Mb/s
Maximum bit rate : 39.5 Mb/s
Width : 1 920 pixels
Height : 1 080 pixels
Display aspect ratio : 16:9
Frame rate mode : Constant
Frame rate : 23.976 (24000/1001) FPS
Color space : YUV
Chroma subsampling : 4:2:0
Bit depth : 8 bits
Scan type : Progressive
Bits/(Pixel*Frame) : 0.713
Stream size : 24.8 GiB (90%)
Language : English
Default : Yes
Forced : No

Audio #1
ID : 2
Format : AC-3
Format/Info : Audio Coding 3
Commercial name : Dolby Digital
Codec ID : A_AC3
Duration : 1 h 40 min
Bit rate mode : Constant
Bit rate : 384 kb/s
Channel(s) : 6 channels
Channel layout : L R C LFE Ls Rs
Sampling rate : 48.0 kHz
Frame rate : 31.250 FPS (1536 SPF)
Bit depth : 16 bits
Compression mode : Lossy
Stream size : 275 MiB (1%)
Title : 5.1 | 384
Language : Ukrainian
Service kind : Complete Main
Default : Yes
Forced : No

Audio #2
ID : 3
Format : AC-3
Format/Info : Audio Coding 3
Commercial name : Dolby Digital
Codec ID : A_AC3
Duration : 1 h 40 min
Bit rate mode : Constant
Bit rate : 448 kb/s
Channel(s) : 6 channels
Channel layout : L R C LFE Ls Rs
Sampling rate : 48.0 kHz
Frame rate : 31.250 FPS (1536 SPF)
Bit depth : 16 bits
Compression mode : Lossy
Stream size : 321 MiB (1%)
Title : 5.1 | 448
Language : English
Service kind : Complete Main
Default : No
Forced : No

Audio #3
ID : 4
Format : XLL
Format/Info : Digital Theater Systems
Commercial name : -HD Master Audio
Codec ID : A_DTS
Duration : 1 h 40 min
Bit rate mode : Variable
Bit rate : 3 289 kb/s
Channel(s) : 6 channels
Channel layout : C L R Ls Rs LFE
Sampling rate : 48.0 kHz
Frame rate : 93.750 FPS (512 SPF)
Bit depth : 24 bits
Compression mode : Lossless
Stream size : 2.30 GiB (8%)
Title : -HD MA 5.1 | 3289
Language : English
Default : No
Forced : No

Text
ID : 5
Format : UTF-8
Codec ID : S_TEXT/UTF8
Codec ID/Info : UTF-8 Plain Text
Duration : 1 h 32 min
Bit rate : 43 b/s
Count of elements : 1040
Stream size : 29.6 KiB (0%)
Title : SDH
Language : English
Default : No
Forced : No

Menu
00:00:00.000 : en:Chapter 1
00:05:07.140 : en:Chapter 2
00:10:05.480 : en:Chapter 3
00:15:28.803 : en:Chapter 4
00:20:27.810 : en:Chapter 5
00:24:08.864 : en:Chapter 6
00:27:39.032 : en:Chapter 7
00:32:40.458 : en:Chapter 8
00:37:58.568 : en:Chapter 9
00:44:15.903 : en:Chapter 10
00:48:41.961 : en:Chapter 11
00:53:54.231 : en:Chapter 12
00:59:09.296 : en:Chapter 13
01:04:29.324 : en:Chapter 14
01:08:25.601 : en:Chapter 15
01:13:15.266 : en:Chapter 16
01:18:22.907 : en:Chapter 17
01:23:59.451 : en:Chapter 18
01:30:11.072 : en:Chapter 19
01:34:57.525 : en:Chapter 20
Скріншоти
Джерело: та інше
Особиста оцінка: 8 - мені сподобалося


Золотий реліз (завантажене не впливає на рейтинг)
 Трекер:    Зареєстрований   

Завантажити / скачати фільм українською



відео для новачків



 Зареєстрований:   2021-01-02 05:40
 Розмір:   27.67 GB 
 Оцінка фільму:   7.8/10 (Голосів: 8)
   
Інші релізи
   Таємничий сад / The Secret Garden (2020) antik_2008  67 / 1   1.44 GB   2021-01-02 06:55 
   Таємничий сад / The Secret Garden (2020) 1080p Ukr/Eng | Sub Eng staf777  31 / 0   12.04 GB   2020-12-30 09:28 
   Таємничий сад / The Secret Garden (2020) 720p Ukr/Eng | Sub Eng staf777  29 / 0   4.3 GB   2020-12-30 08:48 
   Таємничий сад / The Secret Garden (2020) AVC Ukr/Eng | Sub Eng staf777  50 / 2   2.15 GB   2020-12-30 08:16 
[email protected] 
Частий відвідувач


З нами з: 17.11.14
Востаннє: 15.01.21
Повідомлень: 29

2021-01-06 03:51  
не дуже-то = Це суржикоподібне творіння. В українській мові такого немає і не повинно бути.
недавно - Українською - нещодавно; особняк - це калька з московської, хоча і зустрічається в УМ. Більше підійде САДИБА; адже її багаті мама та тато померли = невже вони померли тому що були багаті? померли після раптового спалаху холери в Індії. = На той час холера була те таким вже раптовим явищем в Індії.
Строгий = Українською = суворий. можна тільки потрапити в певні кімнати = правильним буде = можна заходити тільки в певні кімнати, або тільки в деякі кімнати. Мері страшенно допитлива = правильніше буде = Мері дуже допитлива, звісно якщо вона не вискакує з укриття з криками. неймовірному секретному саду = вельми дивний вислів. не так-то = повністю московська мова; Художню частину опису не коментую, таке враження що твір, написано учнем четвертого класу школи. Ви пишете - люди читають, складають про Вас думку. Бажано удосконалюватися, є гугл перекладач і можна увімкнути "перевірка орфографії Українською мовою". Даруйте за відвертість.

Андрій-Франківський 
Новенький


З нами з: 30.05.11
Востаннє: 19.01.21
Повідомлень: 13

2021-01-06 21:40  
Більшості релізерів бракує грамотності у перекладі назв фільмів та у написанні анотацій до них.
Та все ж дякую за роботу і можливість переглядати фільми українською.

leicheman 
Відео Гуртом - фільмокрай
Відео Гуртом - фільмокрай


З нами з: 03.07.14
Востаннє: 21.01.21
Повідомлень: 5808

2021-01-11 10:26  
Андрій-Франківський написано:
Більшості релізерів бракує грамотності у перекладі назв фільмів

Релізери ніколи самі не перекладають назви фільмів! За правилами толоки треба писати ту назву, яку фільму дала студія озвучення.

Ваш часовий пояс: GMT + 2 Години

Нова тема   Відповісти