Зоряний шлях: Подорож додому / Star Trek IV: The Voyage Home (1986) 1080p Ukr/Eng

Нові коментарі

Нова тема   Відповісти
Автор Повідомлення
Цікава ідея 
VIP


З нами з: 25.12.11
Востаннє: 20.01.21
Повідомлень: 759

2021-01-01 23:29  
| 1080p

Зоряний шлях: Подорож додому / Star Trek IV: The Voyage Home (1986) 1080p Ukr/Eng


Зоряний шлях: Подорож додому / Star Trek IV: The Voyage Home (1986) 1080p Ukr/Eng


Якщо вам сподобалося озвучення фільму,
то ви можете підтримати нас за посиланням
ТИЦЬ


Жанр: фантастика, пригодницький
Країна: США



Кінокомпанія / телеканал: Paramount Pictures, Industrial Light & Magic (ILM)
Режисери: Леонард Німой
Актори: Вільям Шатнер, Леонард Німой, ДеФорест Келлі, Джеймс Духан, Джордж Такео, Волтер Кеніг, Нішель Ніколс, Джейн Вайатт, Катрін Хікс та інші

Сюжет:
Повертаючись додому з Вулкана на експропрійованому клінгонському космічному кораблі Кірк і його команда заздалегідь готуються до гіршого. Хоча борг честі виконаний, і Спок знову з нами живий і здоровий, у команди немає більше причин радіти, особливо коли вони починають згадувати про попутно скоєну провину.


Перекладено та озвучено ТО "Цікава Ідея" на замовлення NemoInFire


Тривалість: 01:58:00

Якість: 1080p
Відео:
кодек:
розмір кадру: 1920 x 816
бітрейт: 8929 кб/с

Аудіо # 1:
мова: українська | "Цікава Ідея"
переклад: професійний багатоголосий закадровий
кодек: 5.1
бітрейт: 448 кб/с

Аудіо # 2:
мова: англійська
переклад: оригінал
кодек: 5.1
бітрейт: 640 кб/с
Info
Код:
Format                                   :
Format version                           : Version 4
File size                                : 8.32 GiB
Duration                                 : 1 h 58 min
Overall bit rate                         : 10.0 Mb/s
Movie name                               : Зоряний шлях: Подорож додому / Star Trek IV: The Voyage Home (1986) 1080p [Ukr.Eng] [Цікава Ідея]
Encoded date                             : UTC 2021-01-01 21:14:28
Writing application                      : v50.0.0 ('Awakenings') 64-bit
Writing library                          : libebml v1.4.0 + v1.6.2
Cover                                    : Yes
Attachments                              : cover.jpg

Video
ID                                       : 1
Format                                   : AVC
Format/Info                              : Advanced Video Codec
Format profile                           : [email protected]
Format settings                          : CABAC / 5 Ref Frames
Format settings, CABAC                   : Yes
Format settings, Reference frames        : 5 frames
Codec ID                                 : V_MPEG4/ISO/AVC
Duration                                 : 1 h 58 min
Bit rate                                 : 8 929 kb/s
Width                                    : 1 920 pixels
Height                                   : 816 pixels
Display aspect ratio                     : 2.35:1
Frame rate mode                          : Constant
Frame rate                               : 23.976 FPS
Color space                              : YUV
Chroma subsampling                       : 4:2:0
Bit depth                                : 8 bits
Scan type                                : Progressive
Bits/(Pixel*Frame)                       : 0.238
Stream size                              : 7.41 GiB (89%)
Writing library                          : core 67 r1139M 1024283
Encoding settings                        : cabac=1 / ref=5 / deblock=1:0:0 / analyse=0x3:0x133 / me=umh / subme=7 / psy_rd=1.0:0.0 / mixed_ref=1 / me_range=16 / chroma_me=1 / trellis=1 / 8x8dct=1 / cqm=0 / deadzone=21,11 / chroma_qp_offset=-2 / threads=3 / nr=0 / decimate=1 / mbaff=0 / bframes=3 / b_pyramid=1 / b_adapt=1 / b_bias=0 / direct=1 / wpredb=1 / keyint=250 / keyint_min=25 / scenecut=40 / rc=2pass / bitrate=8929 / ratetol=1.0 / qcomp=0.60 / qpmin=10 / qpmax=51 / qpstep=4 / cplxblur=20.0 / qblur=0.5 / ip_ratio=1.40 / pb_ratio=1.30 / aq=1:1.00
Language                                 : English
Default                                  : Yes
Forced                                   : No

Audio #1
ID                                       : 2
Format                                   : AC-3
Format/Info                              : Audio Coding 3
Commercial name                          : Dolby Digital
Codec ID                                 : A_AC3
Duration                                 : 1 h 58 min
Bit rate mode                            : Constant
Bit rate                                 : 448 kb/s
Channel(s)                               : 6 channels
Channel layout                           : L R C LFE Ls Rs
Sampling rate                            : 48.0 kHz
Frame rate                               : 31.250 FPS (1536 SPF)
Compression mode                         : Lossy
Stream size                              : 381 MiB (4%)
Title                                    : Цікава Ідея
Language                                 : Ukrainian
Service kind                             : Complete Main
Default                                  : Yes
Forced                                   : Yes

Audio #2
ID                                       : 3
Format                                   : AC-3
Format/Info                              : Audio Coding 3
Commercial name                          : Dolby Digital
Codec ID                                 : A_AC3
Duration                                 : 1 h 58 min
Bit rate mode                            : Constant
Bit rate                                 : 640 kb/s
Channel(s)                               : 6 channels
Channel layout                           : L R C LFE Ls Rs
Sampling rate                            : 48.0 kHz
Frame rate                               : 31.250 FPS (1536 SPF)
Compression mode                         : Lossy
Stream size                              : 544 MiB (6%)
Title                                    : Original
Language                                 : English
Service kind                             : Complete Main
Default                                  : No
Forced                                   : No
Скріншоти



Перекладено та озвучено творчим об'єднанням:


Авторський реліз (завантажувати можна без реєстрації)
 Трекер:    Зареєстрований   

Завантажити / скачати фільм українською



відео для новачків



 Зареєстрований:   2021-01-01 23:29
 Розмір:   8.32 GB 
 Оцінка фільму:   10/10 (Голосів: 7)
   
rlvk 
Новенький


З нами з: 10.07.18
Востаннє: 20.01.21
Повідомлень: 12

2021-01-11 23:03  
Дякую. Добрий переклад. Поставив на завантаження попередні три. Гадаю, вони того варті, а саме в озвучці вашого ТО.
-Star-Lord- 
VIP


З нами з: 09.08.18
Востаннє: 20.01.21
Повідомлень: 2291

2021-01-12 01:42  
Ваш часовий пояс: GMT + 2 Години

Нова тема   Відповісти