Принцеса і жаба / The Princess and the Frog (2009) 720p Ukr/Eng | Sub Eng/Ukr

Нові коментарі

Нова тема   Відповісти
Автор Повідомлення
TPEM 
Відео Гуртом - фільмокрай
Відео Гуртом - фільмокрай


З нами з: 30.01.09
Востаннє: 15.11.18
Повідомлень: 405

2010-03-28 23:04  
Принцеса і жаба / The Princess and the Frog (2009) 720p Ukr/Eng | Sub Eng/Ukr

Ще постер
Жанр: анімація, мюзикл, казка, сімейний
Країна: США

7.5/10 (11,265 голосів)
9.5 (2 голоси)

Кіностудія / кінокомпанія: Walt Disney Animation Studios, Walt Disney Pictures
Режисер: Рон Клементс, Джон Маскер
Ролі озвучують:
В оригіналі: Терренс Ховард (Джеймс), Джон Ґудман (Великий тато), Аніка Ноні Роуз (Принцеса Тіана), Бруно Кампос (Принц Навін), Джим Камміннгс (Рей), Опра Уінфрі (Мама Тіани), Дженіфер Льюіс (Мама Оді)
Українською: Дмитро Гаврилов, Катико Пурцеладзе, Євгеній Лунченко, Борис Георгієвський, Віктор Андрієнко, Ірина Дорошенко
Сюжет:
«Принцеса і Жаба» - це стара казка на новий лад від студії Діснея.

У сучасній історії за мотивами улюбленної казки події відбуваються у Новому Орлеані, батьківщині джазу. Головні герої - прекрасна принцеса та принц, якого перетворили на жабу. Щоб знову стати людиною, йому потрібен лише один поцілунок...Тільки тут ви побачите співочого крокодила, кумедного світлячка та багато чого іншого!

Команда мультиплікаторів під керівництвом Рона Клементса і Джона Маскера, творців "Русалочки" і "Аладдіна", а також володар премії "Оскар" композитор Ренді Ньюман розкажуть найпрекраснішу історію кохання на світі... за участю жаб, магії Вуду і співаючого алігатора.
А знаєте, що ...
Нова версія «Принцеси і Жаби» - це перший анімаційний фільм кіностудії «Walt Disney», дія якого відбувається в Америці у «французькому кварталі» Нового Орлеана в першій половині ХХ-го століття. Тіана цілує перетвореного на жабеня принца Навіна і несподівано сама перетворюється на жабу. Але непереможне кохання триває вже між двома жабами. Як відомо, першою класичною диснеївською принцесою була Білосніжка. Потім героїня поступово «засмагала». Тож, Тіана стала першою темношкірою «принцесою «Walt Disney». Актриса Дженніфер Льюїс з радістю погодилася на роль чаклунки, яка також має вигляд афро-американки. «Мама Оді – стара комедіантка у Новому Орлеані. Їй двісті років! Вона сліпа. Але має змію, з допомогою якої може потрапити із одного місця в інше. Яка мета цього персонажа? Показати, що ми маємо поважати старше покоління», - розповіла актриса Дженніфер Льюїс. Унікальну музику до мультфільму написав відомий композитор мультфільму «Тачки» Ренді Ньюман. Глядачі почують джаз, блюз, ґоспел, а також особливий стиль «зі деко». Це популярна негритянська манера виконання у Південній Луїзіані. «Принцеса і жаба» - 49-ий за рахунком фільм студії «Walt Disney». Серед інших легко пригадати «Білосніжку і семеро гномів», «Попелюшку», «Пітера Пена», «101 далматинців», «Красуню і чудовисько» та «Короля-лева».
Тривалість: 01:37:27
Якість:
Відео:
кодек:
розмір кадру: 1280 х 720
бітрейт: 4764 кб/с

Аудіо # 1:
мова: українська
переклад: професійний дубльований
кодек: 5.1
бітрейт: 384 кб/с

Аудіо # 2:
мова: англійська
переклад: оригінал
кодек:
бітрейт: 1510 кб/с

Аудіо # 3:
мова: англійська (коментарі творців)
переклад: оригінал
кодек: 1.0
бітрейт: 96 кб/с

Переклад і озвучення виконано:


Субтитри:
мова: англійська
тип: програмні (м'які)
формат: *.srt

Субтитри:
мова: українська
тип: програмні (м'які)
формат: *.sub

Субтитри:
мова: українська (коментарі творців)
тип: програмні (м'які)
формат: *.sub
Info
Video
ID : 1
Format : AVC
Format/Info : Advanced Video Codec
Format profile : [email protected]
Format settings : CABAC / 4 Ref Frames
Format settings, CABAC : Yes
Format settings, ReFrames : 4 frames
Codec ID : V_MPEG4/ISO/AVC
Duration : 1 h 37 min
Bit rate : 4 912 kb/s
Width : 1 280 pixels
Height : 720 pixels
Display aspect ratio : 16:9
Frame rate mode : Constant
Frame rate : 23.976 (24000/1001) FPS
Color space : YUV
Chroma subsampling : 4:2:0
Bit depth : 8 bits
Scan type : Progressive
Bits/(Pixel*Frame) : 0.222
Stream size : 3.27 GiB (91%)
Title : The Princess and the Frog (2009) 720p
Writing library : core 85 r1442 781d300
Encoding settings : cabac=1 / ref=5 / deblock=1:0:0 / analyse=0x3:0x113 / me=umh / subme=7 / psy=1 / psy_rd=1.00:0.20 / mixed_ref=1 / me_range=16 / chroma_me=1 / trellis=1 / 8x8dct=1 / cqm=0 / deadzone=21,11 / fast_pskip=1 / chroma_qp_offset=-3 / threads=6 / sliced_threads=0 / nr=0 / decimate=1 / mbaff=0 / constrained_intra=0 / bframes=3 / b_pyramid=1 / b_adapt=1 / b_bias=0 / direct=3 / wpredb=1 / wpredp=2 / keyint=250 / keyint_min=25 / scenecut=40 / intra_refresh=0 / rc_lookahead=40 / rc=2pass / mbtree=1 / bitrate=4912 / ratetol=1.0 / qcomp=0.60 / qpmin=10 / qpmax=51 / qpstep=4 / cplxblur=20.0 / qblur=0.5 / ip_ratio=1.40 / aq=1:1.00
Language : English
Default : Yes
Forced : No

Audio
ID : 2
Format : AC-3
Format/Info : Audio Coding 3
Commercial name : Dolby Digital
Codec ID : A_AC3
Duration : 1 h 37 min
Bit rate mode : Constant
Bit rate : 384 kb/s
Channel(s) : 6 channels
Channel layout : L R C LFE Ls Rs
Sampling rate : 48.0 kHz
Frame rate : 31.250 FPS (1536 SPF)
Bit depth : 16 bits
Compression mode : Lossy
Delay relative to video : 7 ms
Stream size : 268 MiB (7%)
Title : 5.1 @ 384 kbps [dubbing]
Language : Ukrainian
Service kind : Complete Main
Default : Yes
Forced : No
Скріншоти:



Джерело:
Особиста оцінка: 9 - давно не бачив настільки якісне кіно

Інші релізи на трекері


 Трекер:    Зареєстрований   

Завантажити / скачати мультфільм українською



відео для новачків



 Зареєстрований:   2010-03-28 23:04
 Розмір:   4.69 GB 
 Оцінка мультфільму:   9.7/10 (Голосів: 44)
   
Ur 
Свій


З нами з: 09.06.09
Востаннє: 14.11.18
Повідомлень: 94

2010-04-04 21:28  
суперовий реліз!
Богдан 
Новенький


З нами з: 04.04.09
Востаннє: 06.11.18
Повідомлень: 22

2010-06-20 10:52  
А окрему доріжку можна???
miroVIDEO 
Частий відвідувач


З нами з: 02.10.09
Востаннє: 14.11.18
Повідомлень: 30

2010-06-22 05:45  
І мені доріжка потрібна
jetUA 
Новенький


З нами з: 21.10.10
Востаннє: 25.10.18
Повідомлень: 11

2010-10-25 08:46  
народ, як мульт? бо піксарівські мульти можна дивитись і дорослим і малим, а от діснеївські... Боюсь, що трохи виросла.
vodomanuch2505 
Свій


З нами з: 12.06.10
Востаннє: 10.11.18
Повідомлень: 122

2010-12-11 23:47  
я якось переглянув і мені сподобався Wide grin
Ваш часовий пояс: GMT + 2 Години

Нова тема   Відповісти