Гніздо / The Nest (2020) 1080p Ukr/Eng | sub Eng

Нові коментарі

Нова тема   Відповісти
Автор Повідомлення
Anonymous 







2021-01-01 14:50  
Гніздо / The Nest (2020) 1080p Ukr/Eng | sub Eng

Гніздо / The Nest (2020) 1080p Ukr/Eng | sub Eng


Жанр: драма, романтичний
Країна: Велика Британія, Канада



Кінокомпанія: Element Pictures, BBC Films, Elevation Pictures
Режисер: Шон Даркін
Актори: Джуд Лоу, Керрі Кун, Уна Рош, Чарлі Шотуелл, Таня Аллен, Таттіона Джонс, Маркус Корнуолл, Майкл Калкін, Аділь Ахтар, Анабел Левентон

Сюжет:
Розкішний маєток, успішний бізнес, красуня дружина і слухняні діти - все це є у талановитого підприємця Рорі. Але йому хочеться більшого. І ось переслідуючи наживу він кидає все і вирушає до Англії підкорювати нові вершини. Але Старий світ не такий простий. І Рорі доводиться викручуватися, брехати і зраджувати, щоб зберегти свій розкішний стиль життя. На що він готовий заради своєї жаги влади і грошей?


Тривалість: 01:47:28
Якість: 1080p [The.Nest.2020.1080p.AMZN..DDP5.1.-TEPES]
Відео:
кодек:
розмір кадру: 1920 х 1040
бітрейт: 8717 кб/с

Аудіо # 1:
мова: українська
переклад: професійний дубльований | Cinema Sound Production
кодек: 2.0 [стерео]
бітрейт: 192 кб/с

Аудіо # 2:
мова: англійська
переклад: оригінал
кодек: 5.1
бітрейт: 640 кб/с

Субтитри:
мова: англійська
тип: програмні (м'які)
формат: *.srt
Info
Код:
General
Unique ID                                : 201820759205126526599351464554353428368 (0x97D543ACC87DA8B52233A0E9471C8790)
Complete name                            : The Nest (2020) 1080p [Ukr_Eng] [Hurtom].
Format                                   :
Format version                           : Version 4
File size                                : 7.17 GiB
Duration                                 : 1 h 47 min
Overall bit rate                         : 9 551 kb/s
Movie name                               : Гніздо (2020)
Encoded date                             : UTC 2021-01-01 12:08:20
Writing application                      : v50.0.0 ('Awakenings') 64-bit
Writing library                          : libebml v1.4.0 + v1.6.2
Cover                                    : Yes
Attachments                              : cover.jpg

Video
ID                                       : 1
Format                                   : AVC
Format/Info                              : Advanced Video Codec
Format profile                           : [email protected]
Format settings                          : CABAC / 4 Ref Frames
Format settings, CABAC                   : Yes
Format settings, Reference frames        : 4 frames
Codec ID                                 : V_MPEG4/ISO/AVC
Duration                                 : 1 h 47 min
Bit rate mode                            : Constant
Bit rate                                 : 8 717 kb/s
Nominal bit rate                         : 10 000 kb/s
Width                                    : 1 920 pixels
Height                                   : 1 040 pixels
Display aspect ratio                     : 1.85:1
Frame rate mode                          : Constant
Frame rate                               : 23.976 (24000/1001) FPS
Color space                              : YUV
Chroma subsampling                       : 4:2:0
Bit depth                                : 8 bits
Scan type                                : Progressive
Bits/(Pixel*Frame)                       : 0.182
Stream size                              : 6.54 GiB (91%)
Default                                  : Yes
Forced                                   : No
Color range                              : Limited
Color primaries                          : BT.709
Transfer characteristics                 : BT.709
Matrix coefficients                      : BT.709

Audio #1
ID                                       : 2
Format                                   : AC-3
Format/Info                              : Audio Coding 3
Commercial name                          : Dolby Digital
Codec ID                                 : A_AC3
Duration                                 : 1 h 47 min
Bit rate mode                            : Constant
Bit rate                                 : 192 kb/s
Channel(s)                               : 2 channels
Channel layout                           : L R
Sampling rate                            : 48.0 kHz
Frame rate                               : 31.250 FPS (1536 SPF)
Compression mode                         : Lossy
Stream size                              : 148 MiB (2%)
Language                                 : Ukrainian
Service kind                             : Complete Main
Default                                  : Yes
Forced                                   : Yes

Audio #2
ID                                       : 3
Format                                   : E-AC-3
Format/Info                              : Enhanced AC-3
Commercial name                          : Dolby Digital Plus
Codec ID                                 : A_EAC3
Duration                                 : 1 h 47 min
Bit rate mode                            : Constant
Bit rate                                 : 640 kb/s
Channel(s)                               : 6 channels
Channel layout                           : L R C LFE Ls Rs
Sampling rate                            : 48.0 kHz
Frame rate                               : 31.250 FPS (1536 SPF)
Compression mode                         : Lossy
Stream size                              : 492 MiB (7%)
Language                                 : English
Service kind                             : Complete Main
Default                                  : No
Forced                                   : No

Text #1
ID                                       : 4
Format                                   : UTF-8
Codec ID                                 : S_TEXT/UTF8
Codec ID/Info                            : UTF-8 Plain Text
Duration                                 : 1 h 39 min
Bit rate                                 : 45 b/s
Count of elements                        : 1254
Stream size                              : 33.1 KiB (0%)
Language                                 : English
Default                                  : No
Forced                                   : No

Text #2
ID                                       : 5
Format                                   : UTF-8
Codec ID                                 : S_TEXT/UTF8
Codec ID/Info                            : UTF-8 Plain Text
Duration                                 : 1 h 42 min
Bit rate                                 : 46 b/s
Count of elements                        : 1359
Stream size                              : 34.9 KiB (0%)
Title                                    : SDH
Language                                 : English
Default                                  : No
Forced                                   : No

Скріншоти





Джерело:
За український звук дякуємо пану PuMa.ua


 Трекер:    Зареєстрований   

Завантажити / скачати фільм українською



відео для новачків



 Зареєстрований:   2021-01-01 14:50
 Розмір:   7.17 GB 
 Оцінка фільму:   7.9/10 (Голосів: 14)
   
Інші релізи
   Гніздо / The Nest (2020) AVC Ukr/Eng | sub Eng Arsenfpu  132 / 2   1.79 GB   2021-01-01 13:07 
Trololo2017 
Новенький


З нами з: 16.12.17
Востаннє: 17.01.21
Повідомлень: 11

2021-01-02 20:32  
На постері Джуд Лоу сам на себе не схожий - водночас і він і не він
dionis_22 
Новенький


З нами з: 18.06.10
Востаннє: 17.01.21
Повідомлень: 2

2021-01-04 13:53  
Anonymous
З усією повагою до Вашої роботи....але можливо зробити хочаб один ріп, який відкривається ACEPlayer...це страшенно бісить.

poolvetrum 
VIP


З нами з: 01.06.14
Востаннє: 15.01.21
Повідомлень: 295

2021-01-06 13:18  
Фільм про світ брехні з якого вибратися можна лише з втратами, про амбіції, ризик і дурня, який тягне у провалля себе і свою сім'ю. Раджу до перегляду – у багатьох аспектах повчальний фільм.
DoctorLife 
Свій


З нами з: 19.04.10
Востаннє: 17.01.21
Повідомлень: 57

2021-01-07 22:59  
Розкішний маєток
І ось переслідуючи наживу
заради своєї жаги влади

Ваш часовий пояс: GMT + 2 Години

Нова тема   Відповісти