Знищення (Сезон 1) / The Undoing (Season 1) (2020) 1080p Ukr/Eng | Sub Eng

Нові коментарі

Нова тема   Відповісти
Автор Повідомлення
tktl 
Частий відвідувач


З нами з: 25.08.13
Востаннє: 27.02.21
Повідомлень: 48

2020-12-31 17:13  
Знищення (Сезон 1) / The Undoing (Season 1) (2020) 1080p Ukr/Eng | Sub Eng


Знищення (Сезон 1) / The Undoing (Season 1) (2020) 1080p Ukr/Eng | Sub Eng


Подяка за постер : mrgalser


Жанр: драма, трилер
Країна: США



Кінокомпанія: HBO
Режисер: Сюзанна Бір
Актори: Ніколь Кідман, Г’ю Ґрант, Едґар РамІрес, Дональд Сазерленд та інші

Сюжет:
Грейс - успішний терапевт з Нью-Йорка, у неї все добре: люблячий чоловік, чудовий син, багате життя. Невдовзі
у Грейс вийде перша книга, в якій вона радить жінкам слухати інтуїцію і вірити першому враженню про чоловіків. Однак напередодні виходу
зникає її чоловік, і казкове життя обертається низкою неприємних одкровень та PR-скандалом.


Трейлер українською.



Тривалість: 1 серія: ~55:00 (цілком серій:6 із 6)
Перелік серій
01. The Undoing
02. The Missing
03. Do No Harm
04. See No Evil
05. Trial by Fury
06. The Bloody Truth
Якість: 1080p
Відео:
кодек:
розмір кадру: 1920 х 1080
бітрейт: 8 882 кб/с

Аудіо # 1:
мова: українська
кодек: 5.1
бітрейт: 384 кб/с
переклад: багатоголосий закадровий | DubLiCat
ролі озвучують: (Olegolas, Оля Ілєнко, Тетяна Рябова, Олександра Ісаєнко, Євгеній Тітомир, Rainy984)

Аудіо # 2:
мова: англійська
переклад: оригінал
кодек: 5.1
бітрейт: 640 кб/с

Субтитри:
мова: англійська
тип: програмні (м'які)
формат: *.srt



Шукайте нашу сторінку на FaceBook: DubLcat

За підготовку релізу подяка пану dragheart
Info
General
Unique ID : 93154477608590495797885327718217186540 (0x4614E65881DB2FDA764ED66561D87CEC)
Complete name : F:\The.Undoing.S01(DubLiCat).1080.Ukr.Eng\The.Undoing.S01.E01(DubLiCat)

.1080.Ukr.Eng.
Format :
Format version : Version 4 / Version 2
File size : 3.92 GiB
Duration : 55mn 34s
Overall bit rate : 10.1 Mbps
Encoded date : UTC 2020-12-28 15:21:35
Writing application : v23.0.0 ('The Bride Said No') 64-bit
Writing library : libebml v1.3.6 + v1.4.9
DURATION : 00:55:34.848000000
NUMBER_OF_FRAMES : 104214
NUMBER_OF_BYTES : 160072704
_STATISTICS_WRITING_APP : v23.0.0 ('The Bride Said No') 64-bit
_STATISTICS_WRITING_DATE_UTC : 2020-12-28 15:21:35
_STATISTICS_TAGS : BPS DURATION NUMBER_OF_FRAMES NUMBER_OF_BYTES

Video
ID : 1
Format : AVC
Format/Info : Advanced Video Codec
Format profile : [email protected]
Format settings, CABAC : Yes
Format settings, ReFrames : 4 frames
Codec ID : V_MPEG4/ISO/AVC
Duration : 55mn 34s
Bit rate mode : Constant
Bit rate : 8 882 Kbps
Nominal bit rate : 10 000 Kbps
Width : 1 920 pixels
Height : 1 080 pixels
Display aspect ratio : 16:9
Frame rate : 23.976 fps
Color space : YUV
Chroma subsampling : 4:2:0
Bit depth : 8 bits
Scan type : Progressive
Bits/(Pixel*Frame) : 0.179
Stream size : 3.45 GiB (88%)
Language : English
Default : Yes
Forced : No
Color primaries : BT.709-5, BT.1361, IEC 61966-2-4, SMPTE RP177
Transfer characteristics : BT.709-5, BT.1361
Matrix coefficients : BT.709-5, BT.1361, IEC 61966-2-4 709, SMPTE RP177

Audio #1
ID : 2
Format : AC-3
Format/Info : Audio Coding 3
Mode extension : CM (complete main)
Codec ID : A_AC3
Duration : 55mn 34s
Bit rate mode : Constant
Bit rate : 384 Kbps
Channel(s) : 6 channels
Channel positions : Front: L C R, Side: L R, LFE
Sampling rate : 48.0 KHz
Bit depth : 16 bits
Compression mode : Lossy
Stream size : 153 MiB (4%)
Language : Ukrainian
Default : Yes
Forced : No

Audio #2
ID : 3
Format : E-AC-3
Format/Info : Audio Coding 3
Codec ID : A_EAC3
Duration : 55mn 34s
Bit rate mode : Constant
Bit rate : 640 Kbps
Channel(s) : 6 channels
Channel positions : Front: L C R, Side: L R, LFE
Sampling rate : 48.0 KHz
Compression mode : Lossy
Delay relative to video : 28ms
Stream size : 254 MiB (6%)
Language : English
Default : No
Forced : No

Text
ID : 4
Format : UTF-8
Codec ID : S_TEXT/UTF8
Codec ID/Info : UTF-8 Plain Text
Title : SDH
Language : English
Default : No
Forced : No
Скріншоти



Джерело:
Особиста оцінка: 10 - без зайвих вагань рекомендую всім!


 Трекер:    Зареєстрований   

Завантажити / скачати серіал українською



відео для новачків



 Зареєстрований:   2020-12-31 17:15
 Розмір:   24.07 GB 
 Оцінка серіалу:   10/10 (Голосів: 6)
   
volohatuy1 
Новенький


З нами з: 13.07.12
Востаннє: 27.02.21
Повідомлень: 20

2021-01-02 01:50  
Загалом озвучка непогана, от тільки про жінку не можна сказати, що вона "вибіркова" - тут підходять такі прикметники, як перебірлива, вибаглива, примхлива тощо.
Ваш часовий пояс: GMT + 2 Години

Нова тема   Відповісти