Скайлайн 3 / Skylines (2020) 720p Eng | sub Ukr, Eng

Нові коментарі

Нова тема   Відповісти
Автор Повідомлення
killer2015 
VIP


З нами з: 30.01.15
Востаннє: 16.04.21
Повідомлень: 476

2020-12-31 15:09  
Скайлайн 3 / Skylines (2020) 720p Eng | sub Ukr, Eng

Скайлайн 3 / Skylines (2020) 720p Eng | sub Ukr, Eng


Жанр: Фантастика, бойовик
Країна: Франція



Кінокомпанія: Mirabelle Pictures Productions, Artbox, Fasten Films
Режисер: Лайам О`Доннелл
Актори: Ліндсі Морган, Джонатан Ховард, Деніел Бернхард, Рона Мітра, Наомі Танкел, Чарлі Юн, Джеремі Фіцджеральд, Іева Андреевайте, Джеймс Космо, Олександр Сіддіг, Яян Рухьян, Саманта Жан, Жіедре Бонд, Пхун Джян

Сюжет:
Через 15 років після вторгнення невідомий вірус загрожує тендітному співіснування дружніх інопланетних гібридів і людей. Народжена на космічному кораблі мутант Роуз Корлі сама зазнає труднощів з управлінням вогневої руки, коли на неї виходять члени опору. Вони пропонують дівчині в складі добре підготовленого загону, куди входить і її брат-інопланетянин Трент, відправитися на ворожу планету і захопити сердечник від зруйнованого корабля, який допоможе врятувати людство.


Тривалість: 01:53:20
Якість: 720p
Відео:
кодек:
розмір кадру: 1248x520
бітрейт: 3 263 кб/с

Аудіо:
мова: англійська
переклад: оригінал
кодек: 5.1
бітрейт: 640 кб/с

Субтитри #1:
мова: українська
(власний переклад з російської)
тип: програмні (м'які)
формат: *.srt

Субтитри #2:
мова: англійська (оригінал)
тип: програмні (м'які)
формат: *.srt
МІ
General
Unique ID : 248078063045460734751086122608178366489 (0xBAA218D61280D42B51DB554E7CB60819)
Complete name : G:\Фільми\Skylines.2020.AMZN..720p_uk\Skylines.2020.AMZN..720p_uk.
Format :
Format version : Version 4
File size : 3.09 GiB
Duration : 1 h 53 min
Overall bit rate mode : Constant
Overall bit rate : 3 905 kb/s
Encoded date : UTC 2020-12-31 11:50:29
Writing application : v47.0.0 ('Black Flag') 64-bit
Writing library : libebml v1.3.10 + v1.5.2

Video
ID : 1
Format : AVC
Format/Info : Advanced Video Codec
Format profile : [email protected]
Format settings : CABAC / 4 Ref Frames
Format settings, CABAC : Yes
Format settings, Reference frames : 4 frames
Codec ID : V_MPEG4/ISO/AVC
Duration : 1 h 53 min
Bit rate mode : Constant
Bit rate : 3 263 kb/s
Nominal bit rate : 6 000 kb/s
Width : 1 248 pixels
Height : 520 pixels
Display aspect ratio : 2.40:1
Frame rate mode : Constant
Frame rate : 23.976 (24000/1001) FPS
Color space : YUV
Chroma subsampling : 4:2:0
Bit depth : 8 bits
Scan type : Progressive
Bits/(Pixel*Frame) : 0.210
Stream size : 2.58 GiB (84%)
Language : English
Default : Yes
Forced : No
Color range : Limited
Color primaries : BT.709
Transfer characteristics : BT.709
Matrix coefficients : BT.709

Audio
ID : 2
Format : E-AC-3
Format/Info : Enhanced AC-3
Commercial name : Dolby Digital Plus
Codec ID : A_EAC3
Duration : 1 h 53 min
Bit rate mode : Constant
Bit rate : 640 kb/s
Channel(s) : 6 channels
Channel layout : L R C LFE Ls Rs
Sampling rate : 48.0 kHz
Frame rate : 31.250 FPS (1536 SPF)
Compression mode : Lossy
Stream size : 519 MiB (16%)
Language : English
Service kind : Complete Main
Default : No
Forced : No
Скріншоти









Джерело:
Особиста оцінка: 0 - не дивився


 Трекер:    Зареєстрований   

Завантажити / скачати фільм українською



відео для новачків



 Зареєстрований:   2020-12-31 15:09
 Розмір:   3.09 GB 
 Оцінка фільму:   8/10 (Голосів: 8)
   
killer2015 
VIP


З нами з: 30.01.15
Востаннє: 16.04.21
Повідомлень: 476

2020-12-31 15:10  

DekkerNewman 
Новенький


З нами з: 29.12.20
Востаннє: 08.04.21
Повідомлень: 10

2021-04-05 12:33  
Мабуть самий компетентний фільм з трилогії, який, нажаль, потерпає від кліше не компенсуючи це, на відміну від другої частини, цікавими сіквенсами.
Нарешті дали щось зробити дівчині, але, знову ж, у рамках самого нецікавого з тропів - роль обраної.
Головний позитивний висновок, який можно зробити дивлячись на ці три фільми - це те, що маючи ентузіазм можно робити амбітну фантастику не зважаючи на досвід чи невеликий бюджет.

Ваш часовий пояс: GMT + 2 Години

Нова тема   Відповісти