La Horsa Bianca - Дискографія (3 альбоми) (2018-2020) [] | Psychedelic Rock

Нові коментарі

Нова тема   Відповісти
Останній раз роздавалося kolpavel (2021-01-19)
Автор Повідомлення
kolpavel 
VIP


З нами з: 04.05.14
Востаннє: 19.01.21
Повідомлень: 1366

2020-12-30 22:34  
La Horsa Bianca - Дискографія (3 альбоми) (2018-2020) [] | Psychedelic Rock

La Horsa Bianca - Дискографія (3 альбоми) (2018-2020) [] | Psychedelic Rock


Стиль: Psychedelic Rock
Країна, місто: Україна, Харкiв
Сайти: Офіційний сайт
Видавець: гурт

Альбоми:
2018 - Somatic Schematic

La Horsa Bianca - Дискографія (3 альбоми) (2018-2020) [] | Psychedelic Rock


Виконавці:
- Євген Манько | бас, тенор-саксофон, сопрано-саксофон, флейта, акустична гітара, бузукі, Mel9-o-Tron, деякі клавіатури
- Ольга Ксендзовська | електричні органи (Vermona Formation 3, Rol’Yer-Own-110, Yamaha reface YC), синтезатори (Korg minilogue, Korg volca keys), фортепіано (підготовлений Zimmerman baby grand, Korg SP250)
- Кирило Гончар | електрогітари
- Андрій Брагін | електрогітара
- Ігор Авдєєв | барабани, бубон

Треклист:
    1. Парашут (Parachute) - 07:17
    2. Fantastic, Mr. Hopkins! - 06:28
    3. Три чорні хвилі (Three black waves) - 07:22
    4 .Escapology - 05:53
    5. Hatbox moment - 05:50

Тривалість: 00:32:52
Мова: інструментальні композиції
Аудіо-кодек:
Бітрейт: 853-965 кб/с
Додаткова інформація:
Лог DRM
foobar2000 1.4.2 / Dynamic Range Meter 1.1.1
log date: 2020-12-24 18:44:20

--------------------------------------------------------------------------------
Analyzed: La Horsa Bianca / Somatic Schematic
--------------------------------------------------------------------------------

DR Peak RMS Duration Track
--------------------------------------------------------------------------------
DR10 -0.17 dB -12.46 dB 7:18 01-Парашут (Parachute)
DR11 -0.15 dB -12.55 dB 6:29 02-Fantastic, Mr. Hopkins!
DR11 -0.33 dB -12.56 dB 7:23 03-Три чорні хвилі (Three Black Waves)
DR11 -0.22 dB -12.50 dB 5:53 04-Escapology
DR11 -1.17 dB -13.87 dB 5:51 05-Hatbox Moment
--------------------------------------------------------------------------------

Number of tracks: 5
Official DR value: DR11

Samplerate: 44100 Hz
Channels: 2
Bits per sample: 16
Bitrate: 897 kbps
Codec:
================================================================================
Лог якостi
-----------------------

DON'T MODIFY THIS FILE

-----------------------

PERFORMER: auCDtect Task Manager, ver. 1.6.0 RC1 build 1.6.0.1
Copyright (c) 2008-2010 y-soft. All rights reserved
http://y-soft.org

ANALYZER: auCDtect: CD records authenticity detector, version 0.8.2
Copyright (c) 2004 Oleg Berngardt. All rights reserved.
Copyright (c) 2004 Alexander Djourik. All rights reserved.

FILE: 05 - Hatbox Moment.
Size: 39389298 Hash: 5993F03E96BED6155D803C4612505E6D Accuracy: -m40
Conclusion: CDDA 100%
Signature: 196FB6DCBF31A5F4C3A5F530C17645DAEBFBEAE9
FILE: 04 - Escapology.
Size: 42657458 Hash: B02600D6F3C6ADA5111930FB86BCE32C Accuracy: -m40
Conclusion: CDDA 100%
Signature: 0EF5FA6D180CAD0CD34C6D6F381BE57C9C5401A8
FILE: 03 - Три чорні хвилі (Three Black Waves).
Size: 49108490 Hash: A778AEBFD678C56C35E04DFCD7F9068F Accuracy: -m40
Conclusion: CDDA 99%
Signature: 46963702B334576A10E238B5326FFF7F215C2AD5
FILE: 02 - Fantastic, Mr. Hopkins!.
Size: 45574181 Hash: C6BC7A6548A8CD3656165781A02CB828 Accuracy: -m40
Conclusion: CDDA 100%
Signature: 5B1A03ED6F3BB6A15F337B34FCD6CA412CAD6E16
FILE: 01 - Парашут (Parachute).
Size: 46714346 Hash: 7DDE014F974F9E31B9084D1A4EBE3838 Accuracy: -m40
Conclusion: CDDA 100%
Signature: B623A4D550CE975F295FAAD66DC677901D288FAA
2019 - Oneiric Numeric

La Horsa Bianca - Дискографія (3 альбоми) (2018-2020) [] | Psychedelic Rock


Виконавці:
- Євген Манько | бас, тенор-саксофон, сопрано-саксофон, флейта, акустична гітара, бузукі, Mel9-o-Tron, деякі клавіатури
- Ольга Ксендзовська | електричні органи (Vermona Formation 3, Rol’Yer-Own-110, Yamaha reface YC), синтезатори (Korg minilogue, Korg volca keys), фортепіано (підготовлений Zimmerman baby grand, Korg SP250)
- Кирило Гончар | електрогітари
- Андрій Брагін | електрогітара
- Ігор Авдєєв | барабани, бубон

Треклист:
    1. Shiro ukari - 07:05
    2. Merry blonde sun (Reynolds' number) - 08:36
    3. Itic - 07:57
    4. Da cao - 06:57
    5. Think as a crab - 06:27

Тривалість: 00:37:03
Мова: інструментальні композиції.
Аудіо-кодек:
Бітрейт: 889-972 кб/с
Додаткова інформація:
Лог DRM

foobar2000 1.4.2 / Замер динамического диапазона (DR) 1.1.1
Дата отчёта: 2020-12-04 18:19:27

--------------------------------------------------------------------------------
Анализ: La Horsa Bianca / Oneiric Numeric
--------------------------------------------------------------------------------

DR Пики RMS Продолжительность трека
--------------------------------------------------------------------------------
DR5 -0.20 дБ -6.22 дБ 7:05 01-Shiro Ukari
DR6 -0.20 дБ -6.76 дБ 8:36 02-Merry Blonde Sun (Reynolds Number)
DR6 -0.20 дБ -6.64 дБ 7:58 03-Itic
DR6 -0.20 дБ -7.00 дБ 6:58 04-Da Cao
DR6 -0.20 дБ -6.66 дБ 6:27 05-Think As a Crab
--------------------------------------------------------------------------------

Количество треков: 5
Реальные значения DR: DR5

Частота: 44100 Гц
Каналов: 2
Разрядность: 16
Битрейт: 911 кбит/с
Кодек:
================================================================================
Лог якостi

-----------------------

DON'T MODIFY THIS FILE

-----------------------

PERFORMER: auCDtect Task Manager, ver. 1.6.0 RC1 build 1.6.0.1
Copyright (c) 2008-2010 y-soft. All rights reserved
http://y-soft.org

ANALYZER: auCDtect: CD records authenticity detector, version 0.8.2
Copyright (c) 2004 Oleg Berngardt. All rights reserved.
Copyright (c) 2004 Alexander Djourik. All rights reserved.

FILE: 01. Shiro Ukari.
Size: 50013507 Hash: 1B2F77BF13D0FB60BE8B368622C234CD Accuracy: -m0
Conclusion: MPEG 95%
Signature: E2A9629BB4CE81AF49B196996FEC8D5607B91F2C
FILE: 02. Merry Blonde Sun (Reynolds Number).
Size: 62851974 Hash: 421C52F9404833C71151CAFBCAFFD807 Accuracy: -m0
Conclusion: CDDA 100%
Signature: 76AD28397A0839B67EA1BD25216065897F3526E4
FILE: 03. Itic.
Size: 56866195 Hash: 04BCEB37EDE29D34E2E5678E901C24E1 Accuracy: -m0
Conclusion: CDDA 100%
Signature: C4CD35056F1198F8E1C3670E536772639CA31A0B
FILE: 04. Da Cao.
Size: 46551591 Hash: 156BE79DA585EE4204D74441F1714D3A Accuracy: -m0
Conclusion: CDDA 100%
Signature: 8DD07408FA32712D4655653D9CD82B2F3BF04C0A
FILE: 05. Think As a Crab.
Size: 44213515 Hash: AB754834266FD28099C1F722262B2E96 Accuracy: -m0
Conclusion: CDDA 100%
Signature: 253AD995A416D641960584F79CCCE4BC4EF19276
2020 - Diluvian Beat

La Horsa Bianca - Дискографія (3 альбоми) (2018-2020) [] | Psychedelic Rock


Виконавці:
Музика: Євген Манько / La Horsa Bianca
Текст: Юрій Іздрик, 2019 (1), Богдан-Ігор Антонич, 1936 (6)

Євген Манько: бас, флейта, саксофони та різні роги, Mel9-o-Tron та різні клавішні, акустична гітара, бузукі, перкусія, вокал
Ольга Ксендзовська: електричні органи, синтезатори, фортепіано, альт-тромбон
Кирило Гончар: електрогітара
Ендрю Брагін: електрогітара, класична гітара

Ігор Авдєєв: барабани, вокал

Треклист:
    01 - Encyclica - 05:40
    02 - A Missage - 07:52
    03 - The Mouse Principle - 06:58
    04 - Laws of Slow Motion - 06:51
    05 - It's Not But Damn - 09:02
    06 - Сурми останнього дня (Trumpets of the Latter Day) - 05:43

Тривалість: 00:42:10
Мова: англiйська (2-5), українська (1,6)
Аудіо-кодек:
Бітрейт: 863-945 кб/с
Джерело: трекер
Додаткова інформація:
Лог DRM
foobar2000 1.4.2 / Dynamic Range Meter 1.1.1
log date: 2020-12-24 18:44:51

--------------------------------------------------------------------------------
Analyzed: La Horsa Bianca / Diluvian Beat
--------------------------------------------------------------------------------

DR Peak RMS Duration Track
--------------------------------------------------------------------------------
DR6 -0.50 dB -7.70 dB 5:40 01-Encyclica
DR6 -0.50 dB -9.10 dB 7:52 02-A Missage
DR6 -0.50 dB -7.81 dB 6:59 03-The Mouse Principle
DR6 -0.50 dB -8.30 dB 6:52 04-Laws of Slow Motion
DR5 -0.50 dB -7.95 dB 9:03 05-It's Not But Damn
DR6 -0.50 dB -8.70 dB 5:44 06-Сурми останнього дня (Trumpets of the Latter Day)
--------------------------------------------------------------------------------

Number of tracks: 6
Official DR value: DR6

Samplerate: 44100 Hz
Channels: 2
Bits per sample: 16
Bitrate: 904 kbps
Codec:
================================================================================
лог якостi
-----------------------

DON'T MODIFY THIS FILE

-----------------------

PERFORMER: auCDtect Task Manager, ver. 1.6.0 RC1 build 1.6.0.1
Copyright (c) 2008-2010 y-soft. All rights reserved
http://y-soft.org

ANALYZER: auCDtect: CD records authenticity detector, version 0.8.2
Copyright (c) 2004 Oleg Berngardt. All rights reserved.
Copyright (c) 2004 Alexander Djourik. All rights reserved.

FILE: 06 - Сурми останнього дня (Trumpets of the Latter Day).
Size: 38937843 Hash: FFA94B7A4F85CCF140833EA800ED2368 Accuracy: -m40
Conclusion: CDDA 100%
Signature: 8EE36689BE09C8AA9A001512F3115332A53C3098
FILE: 05 - It's Not But Damn.
Size: 64183547 Hash: 347F20F033F6708E5BDB5530FE9AF70A Accuracy: -m40
Conclusion: CDDA 100%
Signature: AAD86C3C2CADB87164BDB2DBF449931C158CD76E
FILE: 04 - Laws of Slow Motion.
Size: 44524762 Hash: C433FE3449E8B6219A541F38F5394261 Accuracy: -m40
Conclusion: CDDA 100%
Signature: 2885FDBEF4F6F89823B701C2F63AA5A475D38442
FILE: 03 - The Mouse Principle.
Size: 47506489 Hash: 735F807F11643B6306D0A599B24ECBA6 Accuracy: -m40
Conclusion: CDDA 100%
Signature: 656471173E4D4003C85DFD23850D575253200F09
FILE: 02 - A Missage.
Size: 54507193 Hash: 924552282EA5DE6761E50272EC4018B8 Accuracy: -m40
Conclusion: CDDA 100%
Signature: 35EF7D2AB90037620549B52C4E905CE516E41EAF
FILE: 01 - Encyclica.
Size: 38629581 Hash: BAD7C15F9E88B0ED90F7659EF4DAC609 Accuracy: -m40
Conclusion: CDDA 100%
Signature: 5B0A11992CCE7B61B264BE21B4AB9FA9B27DC6F7


Тривалість: 01:52:05
Мова: відсутня (instrumental), англійська, українська.
Аудіо-кодек:
Бітрейт: 853-972 кб/с
Джерело: трекер

Якщо Ви справді бажаєте підтримати українське - після прослуховування, якщо музика вам сподобалась, придбайте ліцензійний диск. Підтримаймо вітчизняних виконавців!


Золотий реліз (завантажене не впливає на рейтинг)
 Трекер:    Зареєстрований   

Завантажити / скачати українську музику



відео для новачків



 Зареєстрований:   2021-01-02 11:22
 Розмір:   739 MB 
 Оцінка музики:   10/10 (Голосів: 1)
   
Ваш часовий пояс: GMT + 2 Години

Нова тема   Відповісти