Sunchase - Timeline (2020) [] | Drum & Bass / Ambient

Нові коментарі

Нова тема   Відповісти
Автор Повідомлення
kolpavel 
VIP


З нами з: 04.05.14
Востаннє: 20.04.21
Повідомлень: 1399

2020-12-30 23:09  
Sunchase - Timeline (2020) [] | Drum & Bass / Ambient

Sunchase - Timeline (2020) [] | Drum & Bass / Ambient


Стиль: Dubstep, Drum & Bass, Ambient
Країна, місто: Україна, Київ
Видавець: Kashtan Records
Виконавці:
Олександр Павленко
Пісні:
    01. Hello (Original Mix) - 04:14
    02. Step Outside (Original Mix) - 04:59
    03. Muscle Memory (Original Mix) - 06:00
    04. Elevator Dance (Original Mix) - 01:36
    05. Night Driving (Original Mix) - 05:42
    06. Kuela (Original Mix) - 02:39
    07. Botsad (Original Mix) - 04:51
    08. Just For You (Original Mix) - 04:57
    09. H (Original Mix) - 01:03
    10. Star Bright (Original Mix) - 04:33
    11. Another (Original Mix) - 07:02
    12. Nowhere (Original Mix) - 04:26
    13. Potato Outro (Original Mix) - 01:15

Тривалість: 00:53:16
Мова: iнструментальнi композицiї
Аудіо-кодек:
Бітрейт: 530 -1030 кб/с
Джерело: трекер
Додаткова інформація:
auCDtect
CUE Corrector v. 8.4.1 / b. 1016 (Dec. 06, 2020)
————————————————————————————————————————————————————————————————————————
Sunchase / Timeline

Folder: Sunchase - Timeline (2020)
Audio files:
01. Hello (Original Mix). [04:13.720; • 901 kbps • 16 bit \ 44100 Hz • stereo; 27,27 MB (28 591 889 B)]
02. Step Outside (Original Mix). [04:58.627; • 880 kbps • 16 bit \ 44100 Hz • stereo; 31,33 MB (32 856 896 B)]
03. Muscle Memory (Original Mix). [05:59.533; • 955 kbps • 16 bit \ 44100 Hz • stereo; 40,94 MB (42 929 182 B)]
04. Elevator Dance (Original Mix). [01:36.013; • 652 kbps • 16 bit \ 44100 Hz • stereo; 7,46 MB (7 826 625 B)]
05. Night Driving (Original Mix). [05:41.653; • 900 kbps • 16 bit \ 44100 Hz • stereo; 36,68 MB (38 457 389 B)]
06. Kuela (Original Mix). [02:39.507; • 838 kbps • 16 bit \ 44100 Hz • stereo; 15,94 MB (16 717 866 B)]
07. Botsad (Original Mix). [04:51.440; • 848 kbps • 16 bit \ 44100 Hz • stereo; 29,49 MB (30 920 953 B)]
08. Just For You (Original Mix). [04:56.880; • 742 kbps • 16 bit \ 44100 Hz • stereo; 26,28 MB (27 560 658 B)]
09. H (Original Mix). [01:02.573; • 552 kbps • 16 bit \ 44100 Hz • stereo; 4,12 MB (4 324 506 B)]
10. Star Bright (Original Mix). [04:33.173; • 754 kbps • 16 bit \ 44100 Hz • stereo; 24,58 MB (25 777 570 B)]
11. Another (Original Mix). [07:02.000; • 844 kbps • 16 bit \ 44100 Hz • stereo; 42,46 MB (44 521 088 B)]
12. Nowhere (Original Mix). [04:25.560; • 1032 kbps • 16 bit \ 44100 Hz • stereo; 32,68 MB (34 264 335 B)]
13. Potato Outro (Original Mix). [01:15.360; • 534 kbps • 16 bit \ 44100 Hz • stereo; 4,80 MB (5 036 993 B)]

Accuracy: -m0

File 01. Hello (Original Mix) - 100% CDDA [04:13:54]
File 02. Step Outside (Original Mix) - 100% CDDA [04:58:47]
File 03. Muscle Memory (Original Mix) - 100% CDDA [05:59:40]
File 04. Elevator Dance (Original Mix) - 100% CDDA [01:36:00]
File 05. Night Driving (Original Mix) - 100% CDDA [05:41:49]
File 06. Kuela (Original Mix) - 100% CDDA [02:39:37]
File 07. Botsad (Original Mix) - 100% CDDA [04:51:32]
File 08. Just For You (Original Mix) - 100% CDDA [04:56:66]
File 09. H (Original Mix) - 87% CDDA [01:02:42]
File 10. Star Bright (Original Mix) - 100% CDDA [04:33:13]
File 11. Another (Original Mix) - 100% CDDA [07:02:00]
File 12. Nowhere (Original Mix) - 100% CDDA [04:25:42]
File 13. Potato Outro (Original Mix) - 58% CDDA [01:15:26]
————— Summary: —————
These tracks looks like CDDA with probability 100%.
————————————————————————————————————————————————————————————————————————

ANALYZER:
auCDtect: CD records authenticity detector, version 0.8.2
Copyright (c) 2004 Oleg Berngardt. All rights reserved.
Copyright (c) 2004 Alexander Djourik. All rights reserved.

Time elapsed: 4 m 10 s
Log created at December 08, 2020 17:46:31

=== B744A70E1B87D79CE84C4FA545A2EFB0066A1DA2F72AD81871383428A191298E ===
DRMi
foobar2000 1.6.2 / Dynamic Range Meter 1.1.1
log date: 2020-12-08 17:41:48

--------------------------------------------------------------------------------
Analyzed: Sunchase / Timeline
--------------------------------------------------------------------------------

DR Peak RMS Duration Track
--------------------------------------------------------------------------------
DR7 -0.10 dB -9.26 dB 4:14 01-Hello (Original Mix)
DR5 -0.09 dB -7.56 dB 4:59 02-Step Outside (Original Mix)
DR7 -0.09 dB -8.27 dB 6:00 03-Muscle Memory (Original Mix)
DR6 -0.09 dB -7.64 dB 1:36 04-Elevator Dance (Original Mix)
DR7 -0.10 dB -9.74 dB 5:42 05-Night Driving (Original Mix)
DR8 -0.09 dB -10.13 dB 2:39 06-Kuela (Original Mix)
DR6 -0.09 dB -9.83 dB 4:51 07-Botsad (Original Mix)
DR6 -0.10 dB -7.69 dB 4:57 08-Just For You (Original Mix)
DR10 -0.10 dB -12.23 dB 1:03 09-H (Original Mix)
DR7 -0.09 dB -10.07 dB 4:33 10-Star Bright (Original Mix)
DR7 -0.10 dB -8.61 dB 7:02 11-Another (Original Mix)
DR7 -0.09 dB -9.18 dB 4:26 12-Nowhere (Original Mix)
DR9 -4.24 dB -16.15 dB 1:15 13-Potato Outro (Original Mix)
--------------------------------------------------------------------------------

Number of tracks: 13
Official DR value: DR7

Samplerate: 44100 Hz
Channels: 2
Bits per sample: 16
Bitrate: 530 kbps
Codec:
================================================================================


Якщо Ви справді бажаєте підтримати українське - після прослуховування, якщо музика вам сподобалась, придбайте ліцензійний диск. Підтримаймо вітчизняних виконавців!


Срібний реліз (на рейтинг впливає 50% завантаженого)
 Трекер:    Зареєстрований   

Завантажити / скачати українську музику



відео для новачків



 Зареєстрований:   2020-12-30 23:09
 Розмір:   325 MB 
 Оцінка музики:   10/10 (Голосів: 1)
   
Ваш часовий пояс: GMT + 2 Години

Нова тема   Відповісти