Прогулянка з ворогом / Walking with the Enemy (2013) 720p Ukr/Eng

Нові коментарі

Нова тема   Відповісти
Автор Повідомлення
Anonymous 







2020-12-30 10:07  
Прогулянка з ворогом / Walking with the Enemy (2013) 720p Ukr/Eng

Прогулянка з ворогом / Walking with the Enemy (2013) 720p Ukr/Eng
Альтернативні постери:

Прогулянка з ворогом / Walking with the Enemy (2013) 720p Ukr/Eng





Жанр: екшн, драма, історичний
Країна: Румунія, Угорщина, Канада, США



Кінокомпанія: Castel Film Romania, Liberty Studios
Режисер: Марк Шмідт
Актори: Джонас Армстронг, Бен Кінгслі, Ханна Тойнтон, Саймон Кунц, Саймон Даттон, Берн Горман, Шейн Тейлор, Вільям Хоуп, Флора Спенсер-Лонгхерст, Саймон Хепуорт, Ендрю Брук, Чарльз Де'Ейт, Марк Веллс, Чарльз Хаббелл, Марк Вінджетт, Патрік Тумі, Роберт Йезек, Річард Альбрехт, Ральф Браун, Девід Леон, Крістофер Вільямс, Дієго Джозеф

Сюжет:
Під час Голокосту в 1944 році швейцарський дипломат Карл Лутц ховав євреїв від німецьких і угорських нацистів. Він домігся дозволу видавати охоронні листи, організовував безпечні для євреїв будівлі. Одним з таких будинків-притулків був Скляний будинок на вулиці Вадаша, 29, будівля колишньої фабрики з виготовлення скла. Тут знайшли притулок 3000 євреїв. Завдяки дипломатичним здібностям, Карл Лутц зміг переконати угорських та німецьких пронацистських чиновників, серед яких був і Адольф Ейхман, терпимо ставитися до його формальної протекції угорських євреїв. Після закінчення війни дипломат був звинувачений у перевищенні влади і порушенні повноважень, проте пізніше уряд Швейцарії визнав Карла Лутца за його благородну діяльність одним з найвидатніших громадян за всю історію країни.


Тривалість: 01:53:08
Якість: 720p
Відео:
кодек:
розмір кадру: 1280 х 536
бітрейт: 4760 кб/с

Аудіо # 1:
мова: українська
переклад: багатоголосий закадровий
кодек: 2.0 [стерео]
бітрейт: 192 кб/с

Аудіо # 2:
мова: англійська
переклад: оригінал
кодек: 5.1
бітрейт: 448 кб/с

Збережено оригінальні розділи, як на Blu-ray
Info
Код:
Complete name               : Walking with the Enemy (2013) [Ukr,Eng sub.Eng] 720p [Hurtom].
Format                      :
Format version              : Version 4
File size                   : 4.27 GiB
Duration                    : 1 h 53 min
Overall bit rate            : 5 402 kb/s
Movie name                  : Прогулянка з ворогом / Walking with the Enemy (2013) [Ukr,Eng sub.Eng] 720p [Hurtom]
Encoded date                : UTC 2020-12-30 07:05:53
Writing application         : v51.0.0 ('I Wish') 64-bit
Writing library             : libebml v1.4.0 + v1.6.2
Cover                       : Yes
Attachments                 : cover.jpg

Video
ID                          : 1
Format                      : AVC
Format/Info                 : Advanced Video Codec
Format profile              : [email protected]
Format settings             : CABAC / 5 Ref Frames
Format settings, CABAC      : Yes
Format settings, Reference  : 5 frames
Codec ID                    : V_MPEG4/ISO/AVC
Duration                    : 1 h 53 min
Bit rate                    : 4 760 kb/s
Width                       : 1 280 pixels
Height                      : 536 pixels
Display aspect ratio        : 2.40:1
Frame rate mode             : Constant
Frame rate                  : 23.976 (24000/1001) FPS
Color space                 : YUV
Chroma subsampling          : 4:2:0
Bit depth                   : 8 bits
Scan type                   : Progressive
Bits/(Pixel*Frame)          : 0.289
Stream size                 : 3.76 GiB (88%)
Title                       : Прогулянка з ворогом / Walking with the Enemy (2013) 720p [getit]
Writing library             : core 155 r2901 7d0ff22
Encoding settings           : cabac=1 / ref=5 / deblock=1:0:0 / analyse=0x3:0x133 / me=umh / subme=7 / psy=1 / psy_rd=1.00:0.00 / mixed_ref=1 / me_range=16 / chroma_me=1 / trellis=2 / 8x8dct=1 / cqm=0 / deadzone=21,11 / fast_pskip=0 / chroma_qp_offset=-2 / threads=12 / lookahead_threads=2 / sliced_threads=0 / nr=0 / decimate=1 / interlaced=0 / bluray_compat=0 / constrained_intra=0 / bframes=3 / b_pyramid=2 / b_adapt=1 / b_bias=0 / direct=3 / weightb=1 / open_gop=0 / weightp=2 / keyint=250 / keyint_min=23 / scenecut=40 / intra_refresh=0 / rc_lookahead=50 / rc=2pass / mbtree=1 / bitrate=4760 / ratetol=1.0 / qcomp=0.60 / qpmin=0 / qpmax=69 / qpstep=4 / cplxblur=20.0 / qblur=0.5 / ip_ratio=1.40 / aq=1:1.00
Language                    : English
Default                     : Yes
Forced                      : No

Audio #1
ID                          : 2
Format                      : AC-3
Format/Info                 : Audio Coding 3
Commercial name             : Dolby Digital
Codec ID                    : A_AC3
Duration                    : 1 h 53 min
Bit rate mode               : Constant
Bit rate                    : 192 kb/s
Channel(s)                  : 2 channels
Channel layout              : L R
Sampling rate               : 48.0 kHz
Frame rate                  : 31.250 FPS (1536 SPF)
Compression mode            : Lossy
Stream size                 : 155 MiB (4%)
Title                       : MVO [AMC], 2.0 [stereo] 192 Kbps
Language                    : Ukrainian
Service kind                : Complete Main
Default                     : Yes
Forced                      : Yes

Audio #2
ID                          : 3
Format                      : AC-3
Format/Info                 : Audio Coding 3
Commercial name             : Dolby Digital
Codec ID                    : A_AC3
Duration                    : 1 h 53 min
Bit rate mode               : Constant
Bit rate                    : 448 kb/s
Channel(s)                  : 6 channels
Channel layout              : L R C LFE Ls Rs
Sampling rate               : 48.0 kHz
Frame rate                  : 31.250 FPS (1536 SPF)
Compression mode            : Lossy
Stream size                 : 363 MiB (8%)
Title                       : Original, 5.1 448 Kbps
Language                    : English
Service kind                : Complete Main
Default                     : No
Forced                      : No

Text
ID                          : 4
Format                      : UTF-8
Codec ID                    : S_TEXT/UTF8
Codec ID/Info               : UTF-8 Plain Text
Duration                    : 1 h 49 min
Bit rate                    : 49 b/s
Count of elements           : 1378
Stream size                 : 39.6 KiB (0%)
Title                       : Eng Full
Language                    : English
Default                     : No
Forced                      : No

Menu
00:00:00.000                : en:00:00:00.000
00:04:22.053                : en:00:04:22.053
00:18:24.020                : en:00:18:24.020
00:31:25.383                : en:00:31:25.383
00:44:58.029                : en:00:44:58.029
00:57:24.733                : en:00:57:24.733
01:09:38.132                : en:01:09:38.132
01:21:08.864                : en:01:21:08.864
01:30:29.716                : en:01:30:29.716
01:38:09.467                : en:01:38:09.467
01:44:46.989                : en:01:44:46.989
01:50:07.184                : en:01:50:07.184


Джерело: &
Подяка п.Arsenfpu за українську доріжку та п.Neytreenor'у за допомогу у створенні релізу.


 Трекер:    Зареєстрований   

Завантажити / скачати фільм українською



відео для новачків



 Зареєстрований:   2020-12-30 10:07
 Розмір:   4.27 GB 
 Оцінка фільму:   7.8/10 (Голосів: 4)
 ЗАЛИШАЙТЕСЬ ЯКОМОГА ДОВШЕ НА РОЗДАЧІ! ЗАВАНТАЖИВ САМ - ДАЙ ЗАВАНТАЖИТИ ІНШИМ!
   
Інші релізи
Ваш часовий пояс: GMT + 2 Години

Нова тема   Відповісти