Темні матерії (Сезон 1) / Темні початки / His Dark Materials (Season 1) (2019) 720p 2xUkr/Eng | sub Ukr/Eng

Нові коментарі

Нова тема   Відповісти
Автор Повідомлення
Anonymous 







2020-12-29 18:30  
Темні матерії (Сезон 1) / Темні початки / His Dark Materials (Season 1) (2019) 720p 2xUkr/Eng | sub Ukr/Eng

Темні матерії (Сезон 1) / Темні початки / His Dark Materials (Season 1) (2019) 720p 2xUkr/Eng | sub Ukr/Eng


Жанр: пригодницький, драма, сімейний
Країна: Велика Британія, США



Кінокомпанія: Anton, Bad Wolf, BBC, HBO, New Line Cinema, Scholastic
Режисер: Філіп Пуллман (Philip Pullman), Джек Торн (Jack Thorne)
Актори: Дафні Кін (Dafne Keen), Амір Вілсон (Amir Wilson), Кіт Коннор (Kit Connor), Рут Вілсон (Ruth Wilson) та інші

Сюжет:
Дівчинка Ліра Белаква живе в Оксфорді при одному з коледжів. Її дядько — могутній лорд Ізраель — здійснює часті експедиції на Північ. Під час чергової експедиції ректор коледжу віддає Ліру на виховання місіс Кольтер, яка відвозить дівчинку до Лондона. Коли Ліра розуміє, що місіс Кольтер не та, за кого себе видає, Ліра тікає від неї. Вона потрапляє до бродячих циган. Далі її шлях лежить на Північ, куди цигани відправляють загін з метою врятувати дітей, викрадених з усієї Англії страшними «гоблінами». Там Ліра знайомиться з відьмами, броньованими ведмедями і дізнається про плани лорда Ізраеля.


Тривалість: 1 серія: ~55 хв. (цілком серій: 8)
Перелік серій
01) Lyra's Jordan
02) The Idea of North
03) The Spies
04) Armour
05) The Lost Boy
06) The Daemon-Cages
07) The Fight to the Death
08) Betrayal
Якість:
Відео:
кодек:
розмір кадру: 1280 x 720
бітрейт: ~4100 кб/с

Аудіо # 1:
мова: українська
переклад: багатоголосий закадровий | HDrezka Studio
кодек: 5.1
бітрейт: 384 кб/с

Аудіо # 2:
мова: українська
переклад: любительський багатоголосий закадровий | Озвучка AdrianZP
кодек: 5.1
бітрейт: 640 кб/с

Аудіо # 3:
мова: англійська
переклад: оригінал
кодек: 5.1
бітрейт: 1509 кб/с

Субтитри # 1 (форсовані):
мова: українська
переклад: HDrezka Studio
тип: програмні (м'які)
формат: *.srt

Субтитри # 2 (повні):
мова: українська
переклад: Озвучка AdrianZP
тип: програмні (м'які)
формат: *.srt

Субтитри # 3:
мова: англійська
тип: пререндерні
формат: *.sub
Info
General
Unique ID : 299959710006369176295839424457417989992 (0xE1AA2385D8E90008462B4AEDAB689F68)
Complete name : F:\Support\series\His Dark Materials (Season 1) [, 720p, Ukr, Eng]\His Dark Materials. s01e01. Lyra's Jordan.
Format :
Format version : Version 4
File size : 2.57 GiB
Duration : 54 min 34 s
Overall bit rate : 6 751 kb/s
Encoded date : UTC 2020-12-27 20:26:31
Writing application : v51.0.0 ('I Wish') 64-bit
Writing library : libebml v1.4.0 + v1.6.2

Video
ID : 1
Format : AVC
Format/Info : Advanced Video Codec
Format profile : [email protected]
Format settings : CABAC / 5 Ref Frames
Format settings, CABAC : Yes
Format settings, Reference : 5 frames
Codec ID : V_MPEG4/ISO/AVC
Duration : 54 min 32 s
Bit rate : 4 216 kb/s
Width : 1 280 pixels
Height : 720 pixels
Display aspect ratio : 16:9
Frame rate mode : Constant
Frame rate : 25.000 FPS
Color space : YUV
Chroma subsampling : 4:2:0
Bit depth : 8 bits
Scan type : Progressive
Bits/(Pixel*Frame) : 0.183
Stream size : 1.61 GiB (62%)
Writing library : core 159 r2991 1771b55
Encoding settings : cabac=1 / ref=5 / deblock=1:-3:-3 / analyse=0x3:0x113 / me=umh / subme=8 / psy=1 / psy_rd=1.00:0.00 / mixed_ref=1 / me_range=24 / chroma_me=1 / trellis=2 / 8x8dct=1 / cqm=0 / deadzone=21,11 / fast_pskip=1 / chroma_qp_offset=-2 / threads=22 / lookahead_threads=3 / sliced_threads=0 / nr=0 / decimate=1 / interlaced=0 / bluray_compat=0 / constrained_intra=0 / bframes=3 / b_pyramid=2 / b_adapt=2 / b_bias=0 / direct=3 / weightb=1 / open_gop=0 / weightp=2 / keyint=250 / keyint_min=25 / scenecut=40 / intra_refresh=0 / rc_lookahead=50 / rc=2pass / mbtree=1 / bitrate=4216 / ratetol=1.0 / qcomp=0.60 / qpmin=0 / qpmax=69 / qpstep=4 / cplxblur=20.0 / qblur=0.5 / ip_ratio=1.40 / aq=3:0.80
Language : English
Default : Yes
Forced : No

Audio #1
ID : 2
Format : AC-3
Format/Info : Audio Coding 3
Commercial name : Dolby Digital
Codec ID : A_AC3
Duration : 54 min 32 s
Bit rate mode : Constant
Bit rate : 384 kb/s
Channel(s) : 6 channels
Channel layout : L R C LFE Ls Rs
Sampling rate : 48.0 kHz
Frame rate : 31.250 FPS (1536 SPF)
Compression mode : Lossy
Delay relative to video : 27 ms
Stream size : 150 MiB (6%)
Title : HDrezka Studio
Language : Ukrainian
Service kind : Complete Main
Default : Yes
Forced : No

Audio #2
ID : 3
Format : AC-3
Format/Info : Audio Coding 3
Commercial name : Dolby Digital
Codec ID : A_AC3
Duration : 54 min 34 s
Bit rate mode : Constant
Bit rate : 640 kb/s
Channel(s) : 6 channels
Channel layout : L R C LFE Ls Rs
Sampling rate : 48.0 kHz
Frame rate : 31.250 FPS (1536 SPF)
Compression mode : Lossy
Delay relative to video : 3 ms
Stream size : 250 MiB (9%)
Title : Озвучка AdrianZP
Language : Ukrainian
Service kind : Complete Main
Default : No
Forced : No

Audio #3
ID : 4
Format :
Format/Info : Digital Theater Systems
Codec ID : A_DTS
Duration : 54 min 32 s
Bit rate mode : Constant
Bit rate : 1 509 kb/s
Channel(s) : 6 channels
Channel layout : C L R Ls Rs LFE
Sampling rate : 48.0 kHz
Frame rate : 93.750 FPS (512 SPF)
Bit depth : 24 bits
Compression mode : Lossy
Stream size : 589 MiB (22%)
Language : English
Default : No
Forced : No

Text #1
ID : 5
Format : UTF-8
Codec ID : S_TEXT/UTF8
Codec ID/Info : UTF-8 Plain Text
Duration : 10 min 18 s
Bit rate : 21 b/s
Count of elements : 32
Stream size : 1.66 KiB (0%)
Title : HDrezka Studio
Language : Ukrainian
Default : Yes
Forced : Yes

Text #2
ID : 6
Format : UTF-8
Codec ID : S_TEXT/UTF8
Codec ID/Info : UTF-8 Plain Text
Duration : 53 min 15 s
Bit rate : 93 b/s
Count of elements : 762
Stream size : 36.7 KiB (0%)
Title : Озвучка AdrianZP
Language : Ukrainian
Default : No
Forced : No

Text #3
ID : 7
Format : VobSub
Muxing mode : zlib
Codec ID : S_VOBSUB
Codec ID/Info : Picture based subtitle format used on DVDs
Duration : 51 min 37 s
Bit rate : 6 889 b/s
Count of elements : 762
Stream size : 2.54 MiB (0%)
Language : English
Default : No
Forced : No

Menu
00:00:00.000 : en:Chapter 01
00:10:00.080 : en:Chapter 02
00:20:58.840 : en:Chapter 03
00:29:40.000 : en:Chapter 04
00:37:42.240 : en:Chapter 05
00:47:31.000 : en:Chapter 06
Скріншоти
Джерело:
Особиста оцінка: 5 - цікаві ідеї, кепська реалізація





Авторський реліз (завантажувати можна без реєстрації)
 Трекер:    Зареєстрований   

Завантажити / скачати серіал українською



відео для новачків



 Зареєстрований:   2020-12-29 18:30
 Розмір:   20.63 GB 
 Оцінка серіалу:   10/10 (Голосів: 2)
   
Ваш часовий пояс: GMT + 2 Години

Нова тема   Відповісти