Тенет / Tenet (2020) [IMAX] 1080p H.265 Ukr/Eng | Sub Eng

Нові коментарі

Нова тема   Відповісти
Автор Повідомлення
Anonymous 







2020-12-29 01:22  
Тенет / Tenet (2020) [IMAX] 1080p H.265 Ukr/Eng | Sub Eng

Тенет / Tenet (2020) [IMAX] 1080p H.265 Ukr/Eng | Sub Eng


Жанр: бойовик, драма, фантастика, трилер
Країна: США
Кінокомпанія: Warner Bros. Pictures Syncopy Inc.
Режисер: Крістофер Нолан
Актори: Джон Девід Вашингтон, Роберт Паттінсон, Елізабет Дебікі, Кеннет Брана, Аарон Тейлор-Джонсон, Майкл Кейн

Сюжет:
Озброєний єдиним словом — Тенет — головний герой бореться за виживання усього світу. Він подорожує оповитим сутінками світом міжнародного шпигунства з єдиною місією, яка розгорнеться за межами реального часу. Це не подорож крізь час. Це інверсія.

Тривалість: 02:30:09
Якість: (Власний ріп)

Відео:
кодек: H.265 (HEVC)
розмір кадру: 1920 x 1080
бітрейт: 6 381 кб/с
бітова глибина: 10 біт

Увага! Перед завантаженням переконайтесь, що ваш пристрій відтворення (та/або ПЗ) підтримує H.265 (HEVC)

Аудіо # 1:
мова: українська
озвучення: професійне дубльоване
кодек: AC-3 5.1
бітрейт: 384 кб/с

Аудіо # 2:
мова: англійська
озвучення: оригінал
кодек: 5.1
бітрейт: 1510 кб/с

Субтитри # 1: (Forced)
мова: українська
тип: програмні (м'які)
формат: *.srt

Субтитри # 2-3: (Full, SDH)
мова: англійська
тип: програмні (м'які)
формат: *.srt


Інформація про файл
Код:
General
Unique ID                                : 39449477643289753201289155420195965375 (0x1DADB16A4E91637E1057861594CCC9BF)
Complete name                            : Tenet [IMAX] (2020) 1080p H.265 [UKR_ENG] [Hurtom].
Format                                   :
Format version                           : Version 4
File size                                : 8.68 GiB
Duration                                 : 2 h 30 min
Overall bit rate                         : 8 278 kb/s
Movie name                               : Тенет / Tenet [IMAX Edition] (2020)
Encoded date                             : UTC 2020-12-28 23:03:14
Writing application                      : v20.0.0 ('I Am The Sun') 64-bit
Writing library                          : libebml v1.3.5 + v1.4.8
Cover                                    : Yes
Attachments                              : Cover.jpg

Video
ID                                       : 1
Format                                   : HEVC
Format/Info                              : High Efficiency Video Coding
Format profile                           : Main [email protected]@High
Codec ID                                 : V_MPEGH/ISO/HEVC
Duration                                 : 2 h 30 min
Bit rate                                 : 6 381 kb/s
Width                                    : 1 920 pixels
Height                                   : 1 080 pixels
Display aspect ratio                     : 16:9
Frame rate mode                          : Constant
Frame rate                               : 23.976 (24000/1001) FPS
Color space                              : YUV
Chroma subsampling                       : 4:2:0
Bit depth                                : 10 bits
Bits/(Pixel*Frame)                       : 0.128
Stream size                              : 6.69 GiB (77%)
Title                                    : Тенет / Tenet [IMAX Edition] (2020)
Writing library                          : x265 3.4+12-g9103319fc:[Windows][GCC 10.2.0][64 bit] 10bit
Encoding settings                        : cpuid=1111039 / frame-threads=3 / numa-pools=12 / wpp / no-pmode / no-pme / no-psnr / no-ssim / log-level=2 / input-csp=1 / input-res=1920x1080 / interlace=0 / total-frames=216000 / level-idc=41 / high-tier=1 / uhd-bd=0 / ref=5 / no-allow-non-conformance / no-repeat-headers / annexb / no-aud / no-hrd / info / hash=0 / no-temporal-layers / open-gop / min-keyint=23 / keyint=240 / gop-lookahead=0 / bframes=16 / b-adapt=2 / b-pyramid / bframe-bias=0 / rc-lookahead=60 / lookahead-slices=0 / scenecut=40 / hist-scenecut=0 / radl=0 / no-splice / no-intra-refresh / ctu=32 / min-cu-size=8 / rect / amp / max-tu-size=32 / tu-inter-depth=4 / tu-intra-depth=4 / limit-tu=0 / rdoq-level=2 / dynamic-rd=0.00 / no-ssim-rd / signhide / tskip / nr-intra=0 / nr-inter=0 / no-constrained-intra / no-strong-intra-smoothing / max-merge=5 / limit-refs=0 / no-limit-modes / me=3 / subme=7 / merange=57 / temporal-mvp / no-frame-dup / no-hme / weightp / weightb / no-analyze-src-pics / deblock=-3:-3 / no-sao / no-sao-non-deblock / rd=6 / selective-sao=0 / no-early-skip / no-rskip / no-fast-intra / no-tskip-fast / no-cu-lossless / no-b-intra / no-splitrd-skip / rdpenalty=0 / psy-rd=2.00 / psy-rdoq=1.00 / no-rd-refine / no-lossless / cbqpoffs=0 / crqpoffs=0 / rc=crf / crf=20.0 / qcomp=0.68 / qpstep=4 / stats-write=0 / stats-read=0 / vbv-maxrate=50000 / vbv-bufsize=50000 / vbv-init=0.9 / crf-max=0.0 / crf-min=0.0 / ipratio=1.40 / pbratio=1.30 / aq-mode=2 / aq-strength=1.00 / no-cutree / zone-count=0 / no-strict-cbr / qg-size=32 / no-rc-grain / qpmax=69 / qpmin=0 / no-const-vbv / sar=1 / overscan=0 / videoformat=5 / range=0 / colorprim=1 / transfer=1 / colormatrix=1 / chromaloc=0 / display-window=0 / cll=0,0 / min-luma=0 / max-luma=1023 / log2-max-poc-lsb=8 / vui-timing-info / vui-hrd-info / slices=1 / no-opt-qp-pps / no-opt-ref-list-length-pps / no-multi-pass-opt-rps / scenecut-bias=0.05 / hist-threshold=0.01 / no-opt-cu-delta-qp / no-aq-motion / no-hdr10 / no-hdr10-opt / no-dhdr10-opt / no-idr-recovery-sei / analysis-reuse-level=0 / analysis-save-reuse-level=0 / analysis-load-reuse-level=0 / scale-factor=0 / refine-intra=0 / refine-inter=0 / refine-mv=1 / refine-ctu-distortion=0 / no-limit-sao / ctu-info=0 / no-lowpass-dct / refine-analysis-type=0 / copy-pic=1 / max-ausize-factor=1.0 / no-dynamic-refine / no-single-sei / no-hevc-aq / no-svt / no-field / qp-adaptation-range=1.00 / no-scenecut-aware-qpconformance-window-offsets / right=0 / bottom=0 / decoder-max-rate=0
Default                                  : Yes
Forced                                   : No
Color range                              : Limited
Color primaries                          : BT.709
Transfer characteristics                 : BT.709
Matrix coefficients                      : BT.709

Audio #1
ID                                       : 2
Format                                   : AC-3
Format/Info                              : Audio Coding 3
Commercial name                          : Dolby Digital
Codec ID                                 : A_AC3
Duration                                 : 2 h 30 min
Bit rate mode                            : Constant
Bit rate                                 : 384 kb/s
Channel(s)                               : 6 channels
Channel layout                           : L R C LFE Ls Rs
Sampling rate                            : 48.0 kHz
Frame rate                               : 31.250 FPS (1536 SPF)
Compression mode                         : Lossy
Stream size                              : 412 MiB (5%)
Title                                    : AC-3 / 5.1 Ch / 384 kbps / DUB / iTunes
Language                                 : Ukrainian
Service kind                             : Complete Main
Default                                  : Yes
Forced                                   : Yes

Audio #2
ID                                       : 3
Format                                   :
Format/Info                              : Digital Theater Systems
Codec ID                                 : A_DTS
Duration                                 : 2 h 30 min
Bit rate mode                            : Constant
Bit rate                                 : 1 509 kb/s
Channel(s)                               : 6 channels
Channel layout                           : C L R Ls Rs LFE
Sampling rate                            : 48.0 kHz
Frame rate                               : 93.750 FPS (512 SPF)
Bit depth                                : 24 bits
Compression mode                         : Lossy
Stream size                              : 1.58 GiB (18%)
Title                                    : / 5.1 Ch / 1509 kbps / Original
Language                                 : English
Default                                  : No
Forced                                   : No

Text #1
ID                                       : 4
Format                                   : UTF-8
Codec ID                                 : S_TEXT/UTF8
Codec ID/Info                            : UTF-8 Plain Text
Duration                                 : 2 h 16 min
Bit rate                                 : 0 b/s
Count of elements                        : 24
Stream size                              : 731 Bytes (0%)
Title                                    : Forced
Language                                 : Ukrainian
Default                                  : Yes
Forced                                   : Yes

Text #2
ID                                       : 5
Format                                   : UTF-8
Codec ID                                 : S_TEXT/UTF8
Codec ID/Info                            : UTF-8 Plain Text
Duration                                 : 2 h 16 min
Bit rate                                 : 0 b/s
Count of elements                        : 24
Stream size                              : 731 Bytes (0%)
Title                                    : Full
Language                                 : English
Default                                  : No
Forced                                   : No

Text #3
ID                                       : 6
Format                                   : UTF-8
Codec ID                                 : S_TEXT/UTF8
Codec ID/Info                            : UTF-8 Plain Text
Duration                                 : 2 h 26 min
Bit rate                                 : 59 b/s
Count of elements                        : 2141
Stream size                              : 64.0 KiB (0%)
Title                                    : SDH
Language                                 : English
Default                                  : No
Forced                                   : No

Menu
00:00:00.000                             : :Chapter 01
00:09:39.412                             : :Chapter 02
00:19:30.502                             : :Chapter 03
00:28:18.405                             : :Chapter 04
00:38:49.368                             : :Chapter 05
00:49:20.165                             : :Chapter 06
01:00:33.254                             : :Chapter 07
01:09:41.510                             : :Chapter 08
01:22:36.409                             : :Chapter 09
01:30:54.740                             : :Chapter 10
01:39:40.683                             : :Chapter 11
01:51:02.322                             : :Chapter 12
01:59:40.798                             : :Chapter 13
02:11:42.853                             : :Chapter 14
02:19:07.088                             : :Chapter 15
Лог кодування
Код:
x265 [info]: frame I:   2391, Avg QP:16.51  kb/s: 19078.04
x265 [info]: frame P:  42426, Avg QP:18.41  kb/s: 12608.75
x265 [info]: frame B: 171183, Avg QP:20.73  kb/s: 4658.77
x265 [info]: Weighted P-Frames: Y:3.7% UV:2.9%
x265 [info]: Weighted B-Frames: Y:3.6% UV:2.6%
x265 [info]: consecutive B-frames: 9.1% 5.0% 6.7% 35.4% 8.6% 15.3% 4.1% 11.8% 1.6% 1.1% 0.4% 0.7% 0.1% 0.1% 0.1% 0.1% 0.1%
Світлини




Джерело: & &
Особиста оцінка: 10 - без зайвих вагань рекомендую всім!


 Трекер:    Зареєстрований   

Завантажити / скачати фільм українською



відео для новачків



 Зареєстрований:   2020-12-29 01:22
 Розмір:   8.68 GB 
 Оцінка фільму:   9.4/10 (Голосів: 28)
   
Інші релізи
   Тенет [IMAX версія] / Tenet [IMAX Edition] (2020) AVC BASTERD-94  72 / 0   2.3 GB   2020-12-17 23:57 
   Тенет / Tenet (2020) Remux 1080p Ukr/Eng | Sub Eng [IMAX Edition] staf777  42 / 2   36.77 GB   2020-12-15 14:30 
   Тенет / Tenet [IMAX Edition] (2020) Ukr | Sub Eng antik_2008  42 / 4   2 GB   2020-12-15 13:49 
   Тенет / Tenet [IMAX Edition] (2020) AVC Ukr/Eng | Sub Eng eneyida.tv  49 / 0   3.22 GB   2020-12-15 12:43 
   Тенет / Tenet [IMAX Edition] (2020) Ukr/Eng | Sub Eng antik_2008  47 / 0   2.71 GB   2020-12-15 12:41 
   Тенет / Tenet [IMAX Edition] (2020) 720p Ukr/Eng | Sub Eng antik_2008  77 / 0   7.96 GB   2020-12-15 12:09 
   Тенет / Tenet (2020) UHD Remux 4K 2160p HDR H.265 Ukr/Eng | Sub Eng RoMeL  65 / 1   65.58 GB   2020-12-15 08:52 
   Тенет / Tenet (2020) 1080p [IMAX] Ukr/Eng | Sub Eng RoMeL  105 / 2   13.11 GB   2020-12-15 04:03 
extreme1987 
Новенький


З нами з: 26.08.11
Востаннє: 20.01.21
Повідомлень: 11

2020-12-29 18:05  
Дякую дуже .
SERG)One 
Новенький


З нами з: 13.08.09
Востаннє: 26.01.21
Повідомлень: 7

2021-01-03 18:56  
сподобалося! побільше би таких фільмів
Hako 
Свій


З нами з: 01.02.12
Востаннє: 24.01.21
Повідомлень: 65

2021-01-11 01:14  
Гарний фільм.
pohgejib 
VIP


З нами з: 06.06.08
Востаннє: 25.01.21
Повідомлень: 367

2021-01-12 13:19  
Семпл можна?
Ваш часовий пояс: GMT + 2 Години

Нова тема   Відповісти