Диво-жінка 1984 / Wonder Woman 1984 [IMAX Edition] (2020) 720p 2xUkr/Eng | Sub Eng

Нові коментарі

Нова тема   Відповісти
Автор Повідомлення
Anonymous 







2020-12-29 01:01  


Диво-жінка 1984 / Wonder Woman 1984 [IMAX Edition] (2020) 720p 2xUkr/Eng | Sub Eng



«A new era of wonder begins»






Жанр: пригоди, фентезі, екшн
Країна: США, Іспанія, Південна Корея











Кінокомпанія: Warner Bros. Pictures, DC Comics
Режисер: Петті Дженкінс
Актори: Галь Гадот, Кріс Пайн, Крістен Уіг, Педро Паскаль, Робін Райт, Конні Нільсен, Ліллі Аспелл, Амр Вакед, Крістоффер підлогах, Наташа Ротуелл


Сюжет:
Переносимось у 80-ті разом із новою пригодою Диво-Жінки на великому екрані. Цього разу Діана виступить проти нових супротивників: Макса Лорда та Гепарди. Ця нова глава розповідає про Діану Прінс, яка тихо живе в епоху надмірностей – яскравих і колоритних 80-х, коли кожен хоче отримати все. Незважаючи на свою силу, вона живе спокійним життям, працює зі стародавніми артефактами і лиш інколи інкогніто виконує свої супергеройські обов’язки. Але тепер Діані доведеться опинитись у центрі уваги і завдяки мудрості, силі та мужності врятувати людство від загрози, яке воно саме й породило…



Тривалість: 02:31:05
Якість: 720p [IMAX Edition]


Відео:
кодек:
розмір кадру: 1280x688
бітрейт: 4000 кб/с

Аудіо # 1:
мова: українська
переклад: професійний дубльований [Студія «Postmodern»]
кодек: 5.1
бітрейт: 384 кб/с

Аудіо # 2:
мова: українська
переклад: багатоголосий закадровий [Студія «HDRezka»]
кодек: 5.1
бітрейт: 384 кб/с

Аудіо # 3:
мова: англійська
переклад: оригінал
кодек: E- JOC 5.1
бітрейт: 768 кб/с

Джерело озвучення:
&

Субтитри # 1 : (Forced)
мова: українська
тип: програмні (м'які)
формат: *.srt

Субтитри # 2 - 3 : (Full, SDH)
мова: англійська
тип: програмні (м'які)
формат: *.srt


Info
Код:
General
Complete name                            : Wonder Woman 1984 [IMAX Edition] (2020) 720p [Ukr_Eng] [Hurtom].
Format                                   :
Format version                           : Version 4
File size                                : 5.76 GiB
Duration                                 : 2 h 31 min
Overall bit rate                         : 5 457 kb/s
Movie name                               : Диво-жінка 1984 / Wonder Woman 1984 [IMAX Edition]
Encoded date                             : UTC 2021-01-15 14:37:45
Writing application                      : v30.1.0 ('Forever And More') 64-bit
Writing library                          : libebml v1.3.6 + v1.4.9
Cover                                    : Yes
Attachments                              : cover.jpg

Video
ID                                       : 1
Format                                   : AVC
Format/Info                              : Advanced Video Codec
Format profile                           : [email protected]
Format settings                          : CABAC / 4 Ref Frames
Format settings, CABAC                   : Yes
Format settings, RefFrames               : 4 frames
Codec ID                                 : V_MPEG4/ISO/AVC
Duration                                 : 2 h 31 min
Bit rate mode                            : Constant
Bit rate                                 : 4 000 kb/s
Width                                    : 1 280 pixels
Height                                   : 688 pixels
Display aspect ratio                     : 1.890
Original display aspect ratio            : 1.85:1
Frame rate mode                          : Constant
Frame rate                               : 23.976 (24000/1001) FPS
Color space                              : YUV
Chroma subsampling                       : 4:2:0
Bit depth                                : 8 bits
Scan type                                : Progressive
Bits/(Pixel*Frame)                       : 0.189
Stream size                              : 4.13 GiB (72%)
Language                                 : English
Default                                  : Yes
Forced                                   : No
Color range                              : Limited
Color primaries                          : BT.709
Transfer characteristics                 : BT.709
Matrix coefficients                      : BT.709

Audio #1
ID                                       : 2
Format                                   : AC-3
Format/Info                              : Audio Coding 3
Commercial name                          : Dolby Digital
Codec ID                                 : A_AC3
Duration                                 : 2 h 31 min
Bit rate mode                            : Constant
Bit rate                                 : 384 kb/s
Channel(s)                               : 6 channels
Channel layout                           : L R C LFE Ls Rs
Sampling rate                            : 48.0 kHz
Frame rate                               : 31.250 FPS (1536 SPF)
Bit depth                                : 16 bits
Compression mode                         : Lossy
Stream size                              : 415 MiB (7%)
Title                                    : 5.1 | 384
Language                                 : Ukrainian
Service kind                             : Complete Main
Default                                  : Yes
Forced                                   : No

Audio #2
ID                                       : 3
Format                                   : AC-3
Format/Info                              : Audio Coding 3
Commercial name                          : Dolby Digital
Codec ID                                 : A_AC3
Duration                                 : 2 h 31 min
Bit rate mode                            : Constant
Bit rate                                 : 384 kb/s
Channel(s)                               : 6 channels
Channel layout                           : L R C LFE Ls Rs
Sampling rate                            : 48.0 kHz
Frame rate                               : 31.250 FPS (1536 SPF)
Bit depth                                : 16 bits
Compression mode                         : Lossy
Stream size                              : 415 MiB (7%)
Title                                    : 5.1 | 384
Language                                 : Ukrainian
Service kind                             : Complete Main
Default                                  : No
Forced                                   : No

Audio #3
ID                                       : 4
Format                                   : E-AC-3 JOC
Format/Info                              : Enhanced AC-3 with Joint Object Coding
Commercial name                          : Dolby Digital Plus with Dolby Atmos
Codec ID                                 : A_EAC3
Duration                                 : 2 h 31 min
Bit rate mode                            : Constant
Bit rate                                 : 768 kb/s
Channel(s)                               : 6 channels
Channel layout                           : L R C LFE Ls Rs
Sampling rate                            : 48.0 kHz
Frame rate                               : 31.250 FPS (1536 SPF)
Compression mode                         : Lossy
Delay relative to video                  : 24 ms
Stream size                              : 830 MiB (14%)
Title                                    : E- JOC 5.1 | 768
Language                                 : English
Service kind                             : Complete Main
Default                                  : No
Forced                                   : No
Complexity index                         : 16
Number of dynamic objects                : 15
Bed channel count                        : 1 channel
Bed channel configuration                : LFE

Text #1
ID                                       : 5
Format                                   : UTF-8
Codec ID                                 : S_TEXT/UTF8
Codec ID/Info                            : UTF-8 Plain Text
Duration                                 : 2 h 15 min
Bit rate                                 : 1 b/s
Count of elements                        : 34
Stream size                              : 1.66 KiB (0%)
Title                                    : Forced
Language                                 : Ukrainian
Default                                  : Yes
Forced                                   : No

Text #2
ID                                       : 6
Format                                   : UTF-8
Codec ID                                 : S_TEXT/UTF8
Codec ID/Info                            : UTF-8 Plain Text
Duration                                 : 2 h 26 min
Bit rate                                 : 46 b/s
Count of elements                        : 1862
Stream size                              : 50.2 KiB (0%)
Title                                    : Full
Language                                 : English
Default                                  : No
Forced                                   : No

Text #3
ID                                       : 7
Format                                   : UTF-8
Codec ID                                 : S_TEXT/UTF8
Codec ID/Info                            : UTF-8 Plain Text
Duration                                 : 2 h 26 min
Bit rate                                 : 55 b/s
Count of elements                        : 2175
Stream size                              : 59.6 KiB (0%)
Title                                    : SDH
Language                                 : English
Default                                  : No
Forced                                   : No

Скріншоти






Джерело:
Особиста оцінка: 8 - мені сподобалося






Авторський реліз (завантажувати можна без реєстрації)
 Трекер:    Зареєстрований   

Завантажити / скачати фільм українською



відео для новачків



 Зареєстрований:   2021-01-15 16:58
 Розмір:   5.76 GB 
 Оцінка фільму:   8.1/10 (Голосів: 58)
   
SHEVA2018 
Свій


З нами з: 24.09.18
Востаннє: 20.01.21
Повідомлень: 52

2020-12-29 08:16  
Добрий реліз!! Скачаю для роздачі!!! Недооцінили тупі критикани фільму!!! Моя оцінка 9 з 10!!! Кращий першого фільма і Капітана Марвел!
qarty1 
VIP


З нами з: 01.11.09
Востаннє: 19.01.21
Повідомлень: 407

2020-12-29 18:23  
мені сподобався, не знаю чому багато негативу, будьте добрі як кінцівка у цьому фільмі.
SAKSAGANSKY 
Свій


З нами з: 13.05.14
Востаннє: 18.01.21
Повідомлень: 50

2020-12-29 19:39  
Хороший фільм, звичайно не шедевр але з мораллю. Порадувало камео в кінці Happy
bigvovan 
Свій


З нами з: 10.03.09
Востаннє: 16.01.21
Повідомлень: 80

2020-12-30 08:29  
Я ще не дивився, але впевнений що фільм кращий за капітана марвел. Такого постеру фільму ще не бачив.
Adetru 
Частий відвідувач


З нами з: 22.11.17
Востаннє: 20.01.21
Повідомлень: 26

2020-12-30 15:03  
Таке собі. Починалося нормально, але поступово перетворювалося на якусь маячню. Особливо смішно виглядало. як вона літала. Екшон взагалі не дуже, хоча у таких фільмах він має бути цікавим і видовищним.
madagaskar1 
VIP


З нами з: 08.05.14
Востаннє: 20.01.21
Повідомлень: 924

2020-12-30 16:00  
мерзенна феміністична хрінь.

3/10 - за сексуальність "диво" Галі.

redcit 
VIP


З нами з: 21.12.10
Востаннє: 19.01.21
Повідомлень: 895

2020-12-30 21:48  
Перша частина була краща. Взагалі затягнутий фільм. Виріжте непотрібну сюжетну лінію із однією із антагоністок і у фільмі просто нічого не зміниться. Тільки він коротшим і легшим стане.
lunatiq 
Частий відвідувач


З нами з: 01.02.16
Востаннє: 19.01.21
Повідомлень: 47

2020-12-30 22:30  
Сама Гадот говорила, що комікси в синематографі не несуть ніякої цінності, людям немає з кого брати приклад, точно не з вигаданих супергероїв , тому це лайно.
До поки не пройшла кастинг.
Фільм - хрінь повна. хейтіть, можете навіть побити..

redcit 
VIP


З нами з: 21.12.10
Востаннє: 19.01.21
Повідомлень: 895

2020-12-30 23:26  
lunatiq написано:
Сама Гадот говорила, що задумки Марвел - це лайно. До поки не пройшла кастинг.

Але це ж не Марвел...

don pedro 
Попереджень: 1
Попереджень: 1 


З нами з: 29.06.11
Востаннє: 20.01.21
Повідомлень: 18606

2020-12-30 23:27  
redcit написано:
Але це ж не Марвел

Не заважайте людині мріяти. Це бездушно.

tatopylys 
Свій


З нами з: 12.05.16
Востаннє: 19.01.21
Повідомлень: 67

2020-12-31 00:26  
Як на мене то ця кінострічка - феміністичне соплежуйство для дошкільнят..
redcit 
VIP


З нами з: 21.12.10
Востаннє: 19.01.21
Повідомлень: 895

2020-12-31 12:58  
tatopylys написано:
феміністичне соплежуйство

Але чому?

lunatiq 
Частий відвідувач


З нами з: 01.02.16
Востаннє: 19.01.21
Повідомлень: 47

2021-01-01 20:55  
redcit
вибачте за неточність. малось на увазі комікси в цілому.
виправив, щоб не давати приводу для двозначності.

Varlemond 
Свій


З нами з: 03.06.12
Востаннє: 19.01.21
Повідомлень: 70

2021-01-02 19:54  
Погоджуюсь - фільм не вартий перегляду.
Відверто кажучи, дивно, тому що з одного боку фільм пропагує любов, працьовитість; цінувати те, що в тебе є, а не побиватися над тим, чого тобі бракує. Крім того, висміюються бажання людей - як той чоловік з порше. Але з іншого - подача фільму на стільки дитяча, що це, скоріш за все, підходить на аудиторію ДО 16 років. Перші фільми Марвел були нічим не кращі - більше якісних спецефектів і жодного сенсу, суцільні сутички "добрих" проти "злих". Цей фільм не "кишить" ефектами, як на мене в міру. Зміст ± є. Подача - на рівні школяра, забагато показовості. Відсутні жарти сексуального характеру або лайки (я не про смайлики, а про лайливі слова Wide grin) - вважаю це позитивним. Сподіваюся DS, так само як і Марвел, навчиться з часом робити якісні фільми.

Adetru 
Частий відвідувач


З нами з: 22.11.17
Востаннє: 20.01.21
Повідомлень: 26

2021-01-03 12:56  
Для мене останні Месники - один з найгірших фільмів Марвел, серед месників, то точно найгірша частина. Про хороші фільми там важко говорить, бо гроші там понад усе. Мало бути видовищно, а було нудно, дуже нудно, на відміну від попередньої частини.
Даний фільм дуже слабенький, як в ефектах, так і в сценарії. І актори його не витягують.

greyalex 
Новенький


З нами з: 02.03.13
Востаннє: 19.01.21
Повідомлень: 15

2021-01-05 16:18  
Народе, це DC
wolverine 
VIP


З нами з: 26.09.09
Востаннє: 19.01.21
Повідомлень: 333

2021-01-06 22:33  
"Ліга Справедливості" хоч мені і не зайшла, але то був дійсно фільм, в порівнянні з "оцим". Авторові за реліз дякую, бо оце збирався пропонувати дівчині завтра йти в кіно і явно зіпсував би ним вечір. Добре, що передивився сам, бо брали сумніви через низьку оцінку imdb. Даний фільм можна сприймати як казочку для дітей з домішками болівуду та зеленим екраном скрізь і тхне дешевизною (аж очі вирізає). Летюча Диво-Жінка? Приїхали. Якщо би замість неї була "Супер-Гьорл" - пережив би. Як фанат всесвіту DC я просто ледь цей фільм переварив, бо в таке хіба що дитя повірить. Усі з Марвел порівнюють.. Так Марвел свої фільми подає настільки якісно, що в них можна повірити (хоча б на якомусь рівні): закони "Всесвіту" і все таке, де одне випливає з іншого. А в це - ну не можу, вибачте. Ніби якийсь фанфік екранізували, їй-Богу..

П.С. Вибачайте, шановні, просто не стримався. Звук, до речі, досить якісний як на Line. Гарних Свят! Wink (2)

Pindoss 
Частий відвідувач


З нами з: 02.12.14
Востаннє: 19.01.21
Повідомлень: 34

2021-01-08 22:40  
wolverine написано:
"Ліга Справедливості" хоч мені і не зайшла, але то був дійсно фільм, в порівнянні з "оцим". Авторові за реліз дякую, бо оце збирався пропонувати дівчині завтра йти в кіно і явно зіпсував би ним вечір.

хм, моїм знайомим зайшло аж ну, а Аладдін, наприклад, який зібрав лярд не дуже, то ж як так? Sad (1)

Стосовно опису - написано "....Діані доведеться опинитись у центрі уваги і завдяки мудрості, силі та мужності врятувати людство від загрози, яке воно саме й породило…" ЧОМУ вона рятує людство у 80-х якщо вона Бетмену в 2016-му каже "Я покинула людство 100 років тому, бо воно саме себе вбиває, навіщо його рятувати".....

Хтось писав "Сподіваюся на формат 16:9 і в Blu-ray версії" - КАЧАЙТЕ це, в Blu-ray версії буде 2.35:1, там IMAX не буде, ОСЬ інфа!

Стосовно написаного "Ліга Справедливості" хоч мені і не зайшла від користувача wolverine - Ну може вам зайде Ліга від Зака Снайдера, яка вийде літом Happy

lunatiq 
Частий відвідувач


З нами з: 01.02.16
Востаннє: 19.01.21
Повідомлень: 47

2021-01-09 21:44  
Pindoss написано:
Ліга від Зака Снайдера

до речі, Ліга від Зака Снайдера цим літом вже під питанням.

І так, таке враження, що нам постійно понижують планку )

Anonymous 







2021-01-15 16:59  
15.01.2021 – Реліз оновлено!
Звукову доріжку ( 2.0 @ 192 кб/с) замінено на доріжку з ( 5.1 @ 384 кб/с),
а також додано ще одне озвучення від та українські форсовані субтитри.

Neytreenor 
Відео Гуртом - запис з ТБ
Відео Гуртом - запис з ТБ


З нами з: 03.04.11
Востаннє: 20.01.21
Повідомлень: 3021

2021-01-15 17:11  
Anonymous написано:
Title : 5.1 | 384

Щоб ніхто не здогадався, дві аудіо доріжки названо однаково?

Anonymous написано:
переклад: професійний дубльований [Студія «HDRezka»]

А в них звідкіля дубляж взявся? Закадр, ні?

Anonymous 







2021-01-15 17:16  
Neytreenor написано:
Щоб ніхто не здогадався, дві аудіо доріжки названо однаково?

так

Neytreenor написано:
А в них звідкіля дубляж взявся? Закадр, ні?

Дякую
виправив

wolverine 
VIP


З нами з: 26.09.09
Востаннє: 19.01.21
Повідомлень: 333

2021-01-15 19:18  
Pindoss написано:
Ну може вам зайде Ліга від Зака Снайдера, яка вийде літом

Цього я чекаю більше, ніж Нового Року

Dr.S 
Поважний учасник


З нами з: 30.05.17
Востаннє: 19.01.21
Повідомлень: 167

2021-01-15 20:32  
дайте ж трохи вогню - качати 9kbps це ж не тойво Sad (1)
Anonymous 







2021-01-15 20:45  
Dr.S написано:
дайте ж трохи вогню - качати 9kbps це ж не тойво

як є Happy

Ваш часовий пояс: GMT + 2 Години

Нова тема   Відповісти