Земля тролів 2: У пошуках Золотого Замку / Askeladden - I Soria Moria slott (2019) AVC Ukr/Nor | Sub Nor

Нові коментарі

Нова тема   Відповісти
Автор Повідомлення
Arsenfpu 
Відео Гуртом - фільмокрай
Відео Гуртом - фільмокрай


З нами з: 30.04.09
Востаннє: 25.02.21
Повідомлень: 7914

2020-12-28 13:07  
Земля тролів 2: У пошуках Золотого Замку / Askeladden - I Soria Moria slott (2019) AVC Ukr/Nor | Sub Nor

Земля тролів 2: У пошуках Золотого Замку / Askeladden - I Soria Moria slott (2019) AVC Ukr/Nor | Sub Nor
Альтернативний постер



Жанр: пригодницький, сімейний, фентезі
Країна: Норвегія



Кінокомпанія: Maipo Film, Umedia
Режисер: Міккель Бренне Сандемусе
Актори: Торбйорн Харр, Сінневе Макоді Лунд, Сідсе Бабетт Кнудсен, Еллі Харбоа

Сюжет:
Над королівством нависла загроза. Король та королева отруєні і єдине, що може їх врятувати – це жива вода. Шукати її потрібно у Золотому Замку. Але і сам цей замок знайти не легко. Еспен разом з принцесою Крістін вирушають у довгу подорож.


Тривалість: 01:41:20
Якість:
Відео:
кодек:
розмір кадру: 1024 х 432
бітрейт: 2500 кб/с

Аудіо # 1:
мова: українська
переклад: професійний дубльований
кодек: 2.0
бітрейт: 192 кб/с

Аудіо # 2:
мова: норвезька
переклад: оригінал
кодек: 2.0
бітрейт: 192 кб/с

Субтитри:
мова: норвезька
тип: програмні (м'які)
формат: *.srt
Скріншоти














Про файл
General
Unique ID : 65025892073439975943842852572235596512 (0x30EB8801577B2569D8287E71A1DC82E0)
Complete name : D:\Askeladden - I Soria Moria slott (2019) [Ukr,Nor] AVC [Hurtom].
Format :
Format version : Version 4
File size : 2.04 GiB
Duration : 1 h 41 min
Overall bit rate : 2 887 kb/s
Movie name : Земля тролів 2: У пошуках Золотого Замку / Askeladden - I Soria Moria slott (2019)
Encoded date : UTC 2021-01-05 21:18:04
Writing application : v21.0.0 ('Tardigrades Will Inherit The Earth') 32-bit
Writing library : libebml v1.3.5 + v1.4.8
Cover : Yes
Attachments : cover.jpg

Video
ID : 1
Format : AVC
Format/Info : Advanced Video Codec
Format profile : [email protected]
Format settings : CABAC / 8 Ref Frames
Format settings, CABAC : Yes
Format settings, Reference : 8 frames
Codec ID : V_MPEG4/ISO/AVC
Duration : 1 h 41 min
Bit rate : 2 500 kb/s
Width : 1 024 pixels
Height : 432 pixels
Display aspect ratio : 2.40:1
Frame rate mode : Constant
Frame rate : 24.000 FPS
Color space : YUV
Chroma subsampling : 4:2:0
Bit depth : 8 bits
Scan type : Progressive
Bits/(Pixel*Frame) : 0.235
Stream size : 1.77 GiB (87%)
Writing library : core 157 r2969 d4099dd
Encoding settings : cabac=1 / ref=8 / deblock=1:-1:-1 / analyse=0x3:0x133 / me=umh / subme=10 / psy=1 / psy_rd=1.00:0.15 / mixed_ref=1 / me_range=32 / chroma_me=1 / trellis=2 / 8x8dct=1 / cqm=0 / deadzone=21,11 / fast_pskip=0 / chroma_qp_offset=-3 / threads=13 / lookahead_threads=1 / sliced_threads=0 / nr=0 / decimate=1 / interlaced=0 / bluray_compat=0 / constrained_intra=0 / bframes=3 / b_pyramid=2 / b_adapt=2 / b_bias=0 / direct=3 / weightb=1 / open_gop=0 / weightp=2 / keyint=240 / keyint_min=24 / scenecut=40 / intra_refresh=0 / rc_lookahead=60 / rc=2pass / mbtree=1 / bitrate=2500 / ratetol=1.0 / qcomp=0.60 / qpmin=0 / qpmax=69 / qpstep=4 / cplxblur=20.0 / qblur=0.5 / vbv_maxrate=31250 / vbv_bufsize=31250 / nal_hrd=none / filler=0 / ip_ratio=1.40 / aq=1:1.00
Default : Yes
Forced : No

Audio #1
ID : 2
Format : AC-3
Format/Info : Audio Coding 3
Commercial name : Dolby Digital
Codec ID : A_AC3
Duration : 1 h 41 min
Bit rate mode : Constant
Bit rate : 192 kb/s
Channel(s) : 2 channels
Channel layout : L R
Sampling rate : 48.0 kHz
Frame rate : 31.250 FPS (1536 SPF)
Compression mode : Lossy
Stream size : 139 MiB (7%)
Language : Ukrainian
Service kind : Complete Main
Default : Yes
Forced : Yes

Audio #2
ID : 3
Format : AC-3
Format/Info : Audio Coding 3
Commercial name : Dolby Digital
Codec ID : A_AC3
Duration : 1 h 41 min
Bit rate mode : Constant
Bit rate : 192 kb/s
Channel(s) : 2 channels
Channel layout : L R
Sampling rate : 48.0 kHz
Frame rate : 31.250 FPS (1536 SPF)
Compression mode : Lossy
Stream size : 139 MiB (7%)
Language : Norwegian
Service kind : Complete Main
Default : No
Forced : No

Text
ID : 4
Format : UTF-8
Codec ID : S_TEXT/UTF8
Codec ID/Info : UTF-8 Plain Text
Duration : 1 h 40 min
Bit rate : 33 b/s
Count of elements : 664
Stream size : 24.5 KiB (0%)
Language : Norwegian
Default : Yes
Forced : No
Джерело:
За українську доріжку дякую пану Bohdan237
Особиста оцінка: не дивився



 Трекер:    Зареєстрований   

Завантажити / скачати фільм українською



відео для новачків



 Зареєстрований:   2021-01-05 23:37
 Розмір:   2.04 GB 
 Оцінка фільму:   8.9/10 (Голосів: 17)
   
77997997 
VIP


З нами з: 26.02.13
Востаннє: 25.02.21
Повідомлень: 1349

2020-12-28 14:36  
Скоріш за все, буде не повна версія, якщо покажуть кінотеатральне озвучення... Воно коротше, ніж те, що є в онлайн сервісах.
staf777 
Відео Гуртом - підтримка та поширення
Відео Гуртом - підтримка та поширення


З нами з: 16.11.16
Востаннє: 25.02.21
Повідомлень: 5054

2020-12-28 14:55  
+1080
lion822 
Поважний учасник


З нами з: 27.12.11
Востаннє: 24.02.21
Повідомлень: 224

2020-12-28 18:26  
це все цiкаво, а перша частина на толоцi е ?
Lil`Antoni 
VIP


З нами з: 25.02.12
Востаннє: 25.02.21
Повідомлень: 889

2020-12-29 13:04  
Вчора подивився 1 частину. тепер чекаю другу.
Дякую

Varlemond 
Свій


З нами з: 03.06.12
Востаннє: 24.02.21
Повідомлень: 71

2021-01-01 12:59  
Перша частина класна. Сподіваюся друга буде на тому ж рівні
bot 
робот


З нами з: 30.09.07
Востаннє: 26.05.05
Повідомлень: 27251

2021-01-05 23:37  
Тему перенесено з Анонси релізів до форуму Фільми


Arsenfpu

bizzaropanda 
Новенький


З нами з: 17.12.16
Востаннє: 21.02.21
Повідомлень: 4

2021-01-06 12:00  
земля тролів це інтернет Happy
НЕСТОР МАХНО 
Свій


З нами з: 28.04.10
Востаннє: 24.02.21
Повідомлень: 125

2021-01-06 15:42  
Першої немає(((((1
igor911 
Модератор відео


З нами з: 18.01.08
Востаннє: 25.02.21
Повідомлень: 15543

2021-01-06 15:43  
НЕСТОР МАХНО написано:
Першої немає(

є --> https://toloka.to/tracker.php?nm=Askeladden

Lil`Antoni 
VIP


З нами з: 25.02.12
Востаннє: 25.02.21
Повідомлень: 889

2021-01-13 18:44  
Дякую, подивитися всією сім'єю, було цікаво.
Ваш часовий пояс: GMT + 2 Години

Нова тема   Відповісти