Усі побачення Джейн / See Jane Date (2003) 1080p 2xUkr/Eng | Sub Eng

Нові коментарі

Нова тема   Відповісти
Автор Повідомлення
Anonymous 







2020-12-28 12:32  
Усі побачення Джейн / See Jane Date (2003) 1080p 2xUkr/Eng | Sub Eng

Усі побачення Джейн / See Jane Date (2003) 1080p 2xUkr/Eng | Sub Eng
Альтернативний постер:



Жанр: комедія, мелодрама
Країна: Канада, США



Кінокомпанія: RHI Entertainment Inc., Von Zerneck Sertner Films
Режисер: Роберт Берлінгер
Актори: Чарізма Карпентер, Девід Липпер, Джошуа Малина, Івен Марріотт, Камерон Меттісон, Едді МакКлінток, Закарі Лівай, Рашель Лефевр, Седі Лебланк, Френсіс І. МакКарті, Холлі Мері Комбс

Сюжет:
Коли вічно самотня Джейн Грант отримує запрошення на весілля на дві особи, вона звертається за порадою до своїх кращих друзів, з тим щоб ті допомогли їй знайти відповідну людину, адже "за двома зайцями поженешся - жодного не зловиш". Для здійснення цього завдання у неї в запасі є всього два місяці, однак, власне побачення приносить Джейн більше сюрпризів, ніж вона могла коли-небудь собі уявити.


Тривалість: 01:30:01
Якість: 1080p
Відео:
кодек:
розмір кадру: 1920 х 1080
бітрейт: 14,5 Мб/с

Аудіо # 1:
мова: українська
переклад: багатоголосий закадровий
кодек: 2.0
бітрейт: 192 кб/с

Аудіо # 2:
мова: українська
переклад: багатоголосий закадровий | Компанія "КіТ"
кодек: 2.0
бітрейт: 192 кб/с

Аудіо # 3:
мова: англійська
переклад: оригінал
кодек: E- 2.0
бітрейт: 224 кб/с

Субтитри:
мова: англійська (SDH)
тип: програмні (м'які)
формат: *.srt
Info
Код:
Complete name               : See Jane Date (2003) [2xUkr,Eng sub.Eng] 1080p [Hurtom].
Format                      :
Format version              : Version 4
File size                   : 9.70 GiB
Duration                    : 1 h 30 min
Overall bit rate mode       : Variable
Overall bit rate            : 15.4 Mb/s
Movie name                  : Усі побачення Джейн / See Jane Date (2003) [2xUkr,Eng sub.Eng] 1080p [Hurtom]
Encoded date                : UTC 2020-12-28 10:34:45
Writing application         : v51.0.0 ('I Wish') 64-bit
Writing library             : libebml v1.4.0 + v1.6.2
Cover                       : Yes
Attachments                 : cover.jpg

Video
ID                          : 1
Format                      : AVC
Format/Info                 : Advanced Video Codec
Format profile              : [email protected]
Format settings             : CABAC / 4 Ref Frames
Format settings, CABAC      : Yes
Format settings, Reference  : 4 frames
Codec ID                    : V_MPEG4/ISO/AVC
Duration                    : 1 h 30 min
Bit rate mode               : Variable
Bit rate                    : 14.8 Mb/s
Maximum bit rate            : 15.0 Mb/s
Width                       : 1 920 pixels
Height                      : 1 080 pixels
Display aspect ratio        : 16:9
Frame rate mode             : Constant
Frame rate                  : 23.976 (24000/1001) FPS
Color space                 : YUV
Chroma subsampling          : 4:2:0
Bit depth                   : 8 bits
Scan type                   : Progressive
Bits/(Pixel*Frame)          : 0.298
Stream size                 : 9.31 GiB (96%)
Title                       : Усі побачення Джейн / See Jane Date (2003) 1080p [AMZN, ABM]
Language                    : English
Default                     : Yes
Forced                      : No
Color range                 : Limited
Color primaries             : BT.709
Transfer characteristics    : BT.709
Matrix coefficients         : BT.709

Audio #1
ID                          : 2
Format                      : AC-3
Format/Info                 : Audio Coding 3
Commercial name             : Dolby Digital
Codec ID                    : A_AC3
Duration                    : 1 h 29 min
Bit rate mode               : Constant
Bit rate                    : 192 kb/s
Channel(s)                  : 2 channels
Channel layout              : L R
Sampling rate               : 48.0 kHz
Frame rate                  : 31.250 FPS (1536 SPF)
Compression mode            : Lossy
Stream size                 : 123 MiB (1%)
Title                       : MVO [AMC], 2.0 192 Kbps
Language                    : Ukrainian
Service kind                : Complete Main
Default                     : Yes
Forced                      : Yes

Audio #2
ID                          : 3
Format                      : AC-3
Format/Info                 : Audio Coding 3
Commercial name             : Dolby Digital
Codec ID                    : A_AC3
Duration                    : 1 h 29 min
Bit rate mode               : Constant
Bit rate                    : 192 kb/s
Channel(s)                  : 2 channels
Channel layout              : L R
Sampling rate               : 48.0 kHz
Frame rate                  : 31.250 FPS (1536 SPF)
Compression mode            : Lossy
Stream size                 : 123 MiB (1%)
Title                       : MVO [TV5, KIT], 2.0 192 Kbps
Language                    : Ukrainian
Service kind                : Complete Main
Default                     : No
Forced                      : No

Audio #3
ID                          : 4
Format                      : E-AC-3
Format/Info                 : Enhanced AC-3
Commercial name             : Dolby Digital Plus
Codec ID                    : A_EAC3
Duration                    : 1 h 30 min
Bit rate mode               : Constant
Bit rate                    : 224 kb/s
Channel(s)                  : 2 channels
Channel layout              : L R
Sampling rate               : 48.0 kHz
Frame rate                  : 31.250 FPS (1536 SPF)
Compression mode            : Lossy
Stream size                 : 144 MiB (1%)
Title                       : Original, E- 2.0 224 Kbps
Language                    : English
Service kind                : Complete Main
Default                     : No
Forced                      : No

Text
ID                          : 5
Format                      : UTF-8
Codec ID                    : S_TEXT/UTF8
Codec ID/Info               : UTF-8 Plain Text
Duration                    : 1 h 29 min
Bit rate                    : 107 b/s
Count of elements           : 3416
Stream size                 : 70.1 KiB (0%)
Title                       : Eng SDH
Language                    : English
Default                     : No
Forced                      : No



Джерело: &
Подяка п.Arsenfpu за українську доріжку з AMC та допомогу у створенні релізу. Українська доріжка Кіт/TV5: drop_plz.


Срібний реліз (на рейтинг впливає 50% завантаженого)
 Трекер:    Зареєстрований   

Завантажити / скачати фільм українською



відео для новачків



 Зареєстрований:   2020-12-28 19:53
 Розмір:   9.7 GB 
 Оцінка фільму:   -/10 (Голосів: 0)
 ЗАЛИШАЙТЕСЬ ЯКОМОГА ДОВШЕ НА РОЗДАЧІ! ЗАВАНТАЖИВ САМ - ДАЙ ЗАВАНТАЖИТИ ІНШИМ!
   
Інші релізи
21jumpstreet 
VIP


З нами з: 03.07.12
Востаннє: 20.01.21
Повідомлень: 1625

2020-12-28 13:18  
Подруженція Баффі.
bot 
робот


З нами з: 30.09.07
Востаннє: 26.05.05
Повідомлень: 26934

2020-12-28 19:53  
Тему перенесено з Анонси релізів до форуму Фільми в HD


igor911

don pedro 
Попереджень: 1
Попереджень: 1 


З нами з: 29.06.11
Востаннє: 20.01.21
Повідомлень: 18606

2020-12-28 21:48  
21jumpstreet
І Ангела. Та просто недооцінена акторка.

Ваш часовий пояс: GMT + 2 Години

Нова тема   Відповісти