Убивства за абеткою / Убивства за алфавітом (Сезон 1) / The ABC Murders (Season 1) (2018) 1080p 2xUkr/Eng | Sub Eng

Нові коментарі

Нова тема   Відповісти
Автор Повідомлення
Anonymous 







2020-12-28 11:22  
Убивства за абеткою / Убивства за алфавітом (Сезон 1) / The ABC Murders (Season 1) (2018) 1080p 2xUkr/Eng | Sub Eng


Жанр: детектив, драма, кримінальний, трилер
Країна: Велика Британія



Кінокомпанія: Agatha Christie Productions, Mammoth Screen
Режисер: Алекс Габассі
Актори: Джон Малкович, Ендрю Бакан, Імон Феррен, Фрейя Мавор, Ів Гордон, Аня Чалотра, Джек Фартінг, Тара Фітцджеральд, Руперт Грінт та інші.

Сюжет:
Сюжет добре відомий усім шанувальникам класики детективного жанру. Серійний вбивця вбиває нічим між собою не пов'язаних людей в алфавітному порядку їх імен. Вбивця відправляє Еркюлю Пуаро лист перед кожним вбивством, повідомляючи де і коли буде здійснено черговий злочин, але поліція та славетний детектив завжди з’являються із запізненням. Розплутати цю надскладну справу допомагає лише щасливий випадок…


Тривалість: 1 серія: ~ 60 хв (цілком серій: 3)
Перелік серій
1. Episode 1
2. Episode 2
3. Episode 3
Якість:
Відео:
кодек:
розмір кадру: 1920 х 960
бітрейт: 3 615 кб/с

Аудіо # 1:
мова: українська
озвучення: професійне, багатоголосе закадрове | DniproFilm
кодек: 5.1
бітрейт: 384 кб/с
примітка: назву перекладено як: "Убивства за абеткою"

Аудіо # 2:
мова: українська
озвучення: професійне, псевдодубляж |
кодек: 2.0 (стерео)
бітрейт: 192 кб/с
примітка №1: назву перекладено як: "Убивства за алфавітом"
примітка №2: у серіях 01х02 і 01х03, не було озвучено "У попередніх серіях" на ці місця накладено озвучення від DniproFilm.
Інформація про озвучення:
Ролі озвучили: Дмитро Нежельський, Михайло Войчук, Дмитро Вікулов, Андрій Соболєв, Юлія Малахова та ще один жіночий.
Аудіо # 3:
мова: англійська
озвучення: оригінал
кодек: EAC3 5.1
бітрейт: 640 кб/с

Субтитри # 1 (повні):
мова: англійська
тип: програмні (м'які)
формат: *.srt

Субтитри # 2 (повні, для людей з вадами слуху):
мова: англійська
тип: програмні (м'які)
формат: *.srt
Info
General
Unique ID : 220349662031678490355788493415011594751 (0xA5C5CD1DAFF07033E47C914E916C31FF)
Complete name : D:\The ABC Murders (Season 1) (2018) 1080p [2xUKR_ENG] [Hurtom]\Episode 1 (2018) 1080p [2xUKR_ENG] [Hurtom].
Format :
Format version : Version 4 / Version 2
File size : 1.89 GiB
Duration : 55 min 54 s
Overall bit rate : 4 833 kb/s
Encoded date : UTC 2020-12-28 12:21:15
Writing application : v51.0.0 ('I Wish') 32-bit
Writing library : libebml v1.4.0 + v1.6.2
Cover : Yes
Attachments : cover.jpg

Video
ID : 1
Format : AVC
Format/Info : Advanced Video Codec
Format profile : [email protected]
Format settings, CABAC : Yes
Format settings, RefFrames : 4 frames
Codec ID : V_MPEG4/ISO/AVC
Duration : 55 min 54 s
Bit rate : 3 615 kb/s
Width : 1 920 pixels
Height : 960 pixels
Display aspect ratio : 2.000
Frame rate mode : Constant
Frame rate : 25.000 FPS
Color space : YUV
Chroma subsampling : 4:2:0
Bit depth : 8 bits
Scan type : Progressive
Bits/(Pixel*Frame) : 0.078
Stream size : 1.41 GiB (75%)
Default : Yes
Forced : No
Color range : Limited
Color primaries : BT.709
Transfer characteristics : BT.709
Matrix coefficients : BT.709

Audio #1
ID : 2
Format : AC-3
Format/Info : Audio Coding 3
Format settings, Endianness : Big
Codec ID : A_AC3
Duration : 55 min 54 s
Bit rate mode : Constant
Bit rate : 384 kb/s
Channel(s) : 6 channels
Channel positions : Front: L C R, Side: L R, LFE
Sampling rate : 48.0 kHz
Frame rate : 31.250 FPS (1536 SPF)
Bit depth : 16 bits
Compression mode : Lossy
Stream size : 154 MiB (8%)
Title : DniproFilm
Language : Ukrainian
Service kind : Complete Main
Default : Yes
Forced : Yes

Audio #2
ID : 3
Format : AC-3
Format/Info : Audio Coding 3
Format settings, Endianness : Big
Codec ID : A_AC3
Duration : 55 min 53 s
Bit rate mode : Constant
Bit rate : 192 kb/s
Channel(s) : 2 channels
Channel positions : Front: L R
Sampling rate : 48.0 kHz
Frame rate : 31.250 FPS (1536 SPF)
Bit depth : 16 bits
Compression mode : Lossy
Stream size : 76.8 MiB (4%)
Title : Inter
Service kind : Complete Main
Default : No
Forced : No

Audio #3
ID : 4
Format : E-AC-3
Format/Info : Enhanced Audio Coding 3
Format settings, Endianness : Big
Codec ID : A_EAC3
Duration : 55 min 54 s
Bit rate mode : Constant
Bit rate : 640 kb/s
Channel(s) : 6 channels
Channel positions : Front: L C R, Side: L R, LFE
Sampling rate : 48.0 kHz
Frame rate : 187.500 FPS (256 SPF)
Compression mode : Lossy
Stream size : 256 MiB (13%)
Title : Original
Language : English
Service kind : Complete Main
Default : No
Forced : No

Text #1
ID : 5
Format : UTF-8
Codec ID : S_TEXT/UTF8
Codec ID/Info : UTF-8 Plain Text
Duration : 51 min 17 s
Bit rate : 44 b/s
Count of elements : 492
Stream size : 16.6 KiB (0%)
Title : Full
Language : English
Default : No
Forced : No

Text #2
ID : 6
Format : UTF-8
Codec ID : S_TEXT/UTF8
Codec ID/Info : UTF-8 Plain Text
Duration : 54 min 55 s
Bit rate : 42 b/s
Count of elements : 532
Stream size : 17.2 KiB (0%)
Title : Full (SDH)
Language : English
Default : No
Forced : No
Скріншоти
Подяка: п. Anonymous за звукову доріжку №1, яку було взято звідси - https://toloka.to/t99220.
Джерело: &
Особиста оцінка: 7 - моїй подрузі не сподобалося


Авторський реліз (завантажувати можна без реєстрації)
 Трекер:    Зареєстрований   

Завантажити / скачати серіал українською



відео для новачків



 Зареєстрований:   2020-12-28 15:09
 Розмір:   5.67 GB 
 Оцінка серіалу:   10/10 (Голосів: 3)
   
bot 
робот


З нами з: 30.09.07
Востаннє: 26.05.05
Повідомлень: 27262

2020-12-28 11:22  
Тему перенесено з Серіали в HD до форуму Анонси релізів


tilda4334

bot 
робот


З нами з: 30.09.07
Востаннє: 26.05.05
Повідомлень: 27262

2020-12-28 14:52  
Тему перенесено з Анонси релізів до форуму Серіали в HD


tilda4334

Ваш часовий пояс: GMT + 2 Години

Нова тема   Відповісти