Диво-жінка 1984 / Wonder Woman 1984 [IMAX Edition] (2020) 1080p 2xUkr/Eng | Sub Eng

Нові коментарі

Нова тема   Відповісти
Сторінка:  1, 2  наступна
Автор Повідомлення
Anonymous 







2020-12-28 00:00  


Диво-жінка 1984 / Wonder Woman 1984 [IMAX Edition] (2020) 1080p 2xUkr/Eng | Sub Eng



«A new era of wonder begins»



Диво-жінка 1984 / Wonder Woman 1984 [IMAX Edition] (2020) 1080p 2xUkr/Eng | Sub Eng



Жанр: пригоди, фентезі, екшн
Країна: США, Іспанія, Південна Корея











Кінокомпанія: Warner Bros. Pictures, DC Comics
Режисер: Петті Дженкінс
Актори: Галь Гадот, Кріс Пайн, Крістен Уіг, Педро Паскаль, Робін Райт, Конні Нільсен, Ліллі Аспелл, Амр Вакед, Крістоффер підлогах, Наташа Ротуелл


Сюжет:
Переносимось у 80-ті разом із новою пригодою Диво-Жінки на великому екрані. Цього разу Діана виступить проти нових супротивників: Макса Лорда та Гепарди. Ця нова глава розповідає про Діану Прінс, яка тихо живе в епоху надмірностей – яскравих і колоритних 80-х, коли кожен хоче отримати все. Незважаючи на свою силу, вона живе спокійним життям, працює зі стародавніми артефактами і лиш інколи інкогніто виконує свої супергеройські обов’язки. Але тепер Діані доведеться опинитись у центрі уваги і завдяки мудрості, силі та мужності врятувати людство від загрози, яке воно саме й породило…



Тривалість: 02:31:05
Якість: 1080p [IMAX Edition]


Відео:
кодек:
розмір кадру: 1920 x 1040
бітрейт: 10000 кб/с

Аудіо # 1:
мова: українська
переклад: професійний дубльований [Студія «Postmodern»]
кодек: 5.1
бітрейт: 384 кб/с

Аудіо # 2:
мова: українська
переклад: багатоголосий закадровий [Студія «HDRezka»]
кодек: 5.1
бітрейт: 384 кб/с

Аудіо # 3:
мова: англійська
переклад: оригінал
кодек: E- JOC 5.1
бітрейт: 768 кб/с

Джерело озвучення:
&

Субтитри # 1 : (Forced)
мова: українська
тип: програмні (м'які)
формат: *.srt

Субтитри # 2 - 3 : (Full, SDH)
мова: англійська
тип: програмні (м'які)
формат: *.srt


Info
Код:

General
Complete name                            : Wonder Woman 1984 [IMAX Edition] (2020) 1080p [2xukr_eng] [Hurtom].
Format                                   :
Format version                           : Version 4
File size                                : 11.8 GiB
Duration                                 : 2 h 31 min
Overall bit rate                         : 11.2 Mb/s
Movie name                               : Диво-жінка 1984 / Wonder Woman 1984 [IMAX Edition] (2020)
Encoded date                             : UTC 2021-01-15 14:58:20
Writing application                      : v30.1.0 ('Forever And More') 64-bit
Writing library                          : libebml v1.3.6 + v1.4.9
Cover                                    : Yes
Attachments                              : cover.jpg

Video
ID                                       : 1
Format                                   : AVC
Format/Info                              : Advanced Video Codec
Format profile                           : [email protected]
Format settings                          : CABAC / 4 Ref Frames
Format settings, CABAC                   : Yes
Format settings, RefFrames               : 4 frames
Codec ID                                 : V_MPEG4/ISO/AVC
Duration                                 : 2 h 31 min
Bit rate mode                            : Constant
Bit rate                                 : 10 000 kb/s
Width                                    : 1 920 pixels
Height                                   : 1 040 pixels
Display aspect ratio                     : 1.890
Original display aspect ratio            : 1.85:1
Frame rate mode                          : Constant
Frame rate                               : 23.976 (24000/1001) FPS
Color space                              : YUV
Chroma subsampling                       : 4:2:0
Bit depth                                : 8 bits
Scan type                                : Progressive
Bits/(Pixel*Frame)                       : 0.209
Stream size                              : 10.2 GiB (86%)
Language                                 : English
Default                                  : Yes
Forced                                   : No
Color range                              : Limited
Color primaries                          : BT.709
Transfer characteristics                 : BT.709
Matrix coefficients                      : BT.709

Audio #1
ID                                       : 2
Format                                   : AC-3
Format/Info                              : Audio Coding 3
Commercial name                          : Dolby Digital
Codec ID                                 : A_AC3
Duration                                 : 2 h 31 min
Bit rate mode                            : Constant
Bit rate                                 : 384 kb/s
Channel(s)                               : 6 channels
Channel layout                           : L R C LFE Ls Rs
Sampling rate                            : 48.0 kHz
Frame rate                               : 31.250 FPS (1536 SPF)
Bit depth                                : 16 bits
Compression mode                         : Lossy
Stream size                              : 415 MiB (3%)
Title                                    : 5.1 | 384
Language                                 : Ukrainian
Service kind                             : Complete Main
Default                                  : Yes
Forced                                   : No

Audio #2
ID                                       : 3
Format                                   : AC-3
Format/Info                              : Audio Coding 3
Commercial name                          : Dolby Digital
Codec ID                                 : A_AC3
Duration                                 : 2 h 31 min
Bit rate mode                            : Constant
Bit rate                                 : 384 kb/s
Channel(s)                               : 6 channels
Channel layout                           : L R C LFE Ls Rs
Sampling rate                            : 48.0 kHz
Frame rate                               : 31.250 FPS (1536 SPF)
Bit depth                                : 16 bits
Compression mode                         : Lossy
Stream size                              : 415 MiB (3%)
Title                                    : 5.1 | 384
Language                                 : Ukrainian
Service kind                             : Complete Main
Default                                  : No
Forced                                   : No

Audio #3
ID                                       : 4
Format                                   : E-AC-3 JOC
Format/Info                              : Enhanced AC-3 with Joint Object Coding
Commercial name                          : Dolby Digital Plus with Dolby Atmos
Codec ID                                 : A_EAC3
Duration                                 : 2 h 31 min
Bit rate mode                            : Constant
Bit rate                                 : 768 kb/s
Channel(s)                               : 6 channels
Channel layout                           : L R C LFE Ls Rs
Sampling rate                            : 48.0 kHz
Frame rate                               : 31.250 FPS (1536 SPF)
Compression mode                         : Lossy
Delay relative to video                  : 24 ms
Stream size                              : 830 MiB (7%)
Title                                    : E- JOC 5.1 | 768
Language                                 : English
Service kind                             : Complete Main
Default                                  : No
Forced                                   : No
Complexity index                         : 16
Number of dynamic objects                : 15
Bed channel count                        : 1 channel
Bed channel configuration                : LFE

Text #1
ID                                       : 5
Format                                   : UTF-8
Codec ID                                 : S_TEXT/UTF8
Codec ID/Info                            : UTF-8 Plain Text
Duration                                 : 2 h 15 min
Bit rate                                 : 1 b/s
Count of elements                        : 34
Stream size                              : 1.66 KiB (0%)
Title                                    : Forced
Language                                 : Ukrainian
Default                                  : Yes
Forced                                   : No

Text #2
ID                                       : 6
Format                                   : UTF-8
Codec ID                                 : S_TEXT/UTF8
Codec ID/Info                            : UTF-8 Plain Text
Duration                                 : 2 h 26 min
Bit rate                                 : 46 b/s
Count of elements                        : 1862
Stream size                              : 50.2 KiB (0%)
Title                                    : Full
Language                                 : English
Default                                  : No
Forced                                   : No

Text #3
ID                                       : 7
Format                                   : UTF-8
Codec ID                                 : S_TEXT/UTF8
Codec ID/Info                            : UTF-8 Plain Text
Duration                                 : 2 h 26 min
Bit rate                                 : 55 b/s
Count of elements                        : 2175
Stream size                              : 59.6 KiB (0%)
Title                                    : SDH
Language                                 : English
Default                                  : No
Forced                                   : No

Скріншоти






Джерело:
Особиста оцінка: 8 - мені сподобалося






Авторський реліз (завантажувати можна без реєстрації)
 Трекер:    Зареєстрований   

Завантажити / скачати фільм українською



відео для новачків



 Зареєстрований:   2021-01-15 17:07
 Розмір:   11.84 GB 
 Оцінка фільму:   7.9/10 (Голосів: 89)
   
lion822 
Поважний учасник


З нами з: 27.12.11
Востаннє: 20.01.21
Повідомлень: 216

2020-12-28 22:54  
таке собi кiно, перша частина краща. До речi уорнери дали добро на зйомки третьоi частини.. Фiльм дивiться повнiстю з титрами
Anonymous 







2020-12-28 23:40  
Реліз готовий! Прошу! Happy
СлавікКот 
Частий відвідувач


З нами з: 28.10.15
Востаннє: 23.01.21
Повідомлень: 26

2020-12-29 01:17  
Як звук?
Bogking009 
Новенький


З нами з: 06.12.14
Востаннє: 23.01.21
Повідомлень: 1

2020-12-29 09:56  
Ходив ще в кіно, фільм справді нуднуватий, але на один раз згодиться.
Alex Zab4ik 
Новенький


З нами з: 23.12.19
Востаннє: 22.01.21
Повідомлень: 18

2020-12-29 12:21  
СлавікКот написано:
Як звук?

+, як звук? З кінотеатру?

Додано через 26 хвилин 56 секунд:

Anonymous написано:
  
Реліз готовий! Прошу!

Дякую!

Українчик 
Новенький


З нами з: 05.01.15
Востаннє: 23.01.21
Повідомлень: 14

2020-12-29 12:21  
О, Боже ! Яка ж Ґаль Ґадот красунечка 😍 Фантастична дівчина 😍
А це кіно просто розриває мозок ! Бомба 💣

Ставлю 100 з 100 😘

IordRings 
Новенький


З нами з: 25.04.20
Востаннє: 18.01.21
Повідомлень: 2

2020-12-29 19:27  
Дякую за фільм .
CBAPT 
Свій


З нами з: 05.02.08
Востаннє: 21.01.21
Повідомлень: 102

2020-12-29 20:19  
IMAX тільки ж на початку, а далі чорні смужки
Alex Zab4ik 
Новенький


З нами з: 23.12.19
Востаннє: 22.01.21
Повідомлень: 18

2020-12-30 00:46  
Фільм просто бомба 💣 Нічим не гірший першої частини! На початку не дуже цікаво, а потім як понеслоооось
Mongoose 
Свій


З нами з: 27.03.16
Востаннє: 18.01.21
Повідомлень: 144

2020-12-30 00:54  
Я глибоко розчарований. Сексистське шлакове кіно
Увага, спойлер !!! :

1. Ніхто ніколи не буде страждати з дурницями кидати дитину як заручника
2. Камери не зберігають зображення перед знищенням?
3. Менеджер триндить, що приїде ФБР і нащо приїде у коридорі?? ШТА?
4. Суцільне кліше - незграбна жінка, туполобі чоловіки.
5. КАРЛ, РАДАР ПРАЦЮЄ НЕ ЗІ СВІТЛОМ, А З МЕТАЛОМ, КАААААРЛЛ!!!!!
6. Тут вона КРаЗ-а боком пхає, а за 2хв не може трошки відсунути БТР
7. Я втомився від тупості цього фільму

Alex Zab4ik 
Новенький


З нами з: 23.12.19
Востаннє: 22.01.21
Повідомлень: 18

2020-12-30 08:30  
Mongoose
Заспокойтеся) Це ж фентезі)

Mongoose 
Свій


З нами з: 27.03.16
Востаннє: 18.01.21
Повідомлень: 144

2020-12-30 09:04  
Alex Zab4ik
Фентезі - це Гобіт, фентезі - це Поттеріана. Навіть Дедпул - це фентезі. Окей, навіть перша частина - теж фентезі. А ось це - відверті відходи.

Alex Zab4ik 
Новенький


З нами з: 23.12.19
Востаннє: 22.01.21
Повідомлень: 18

2020-12-30 09:23  
Mongoose
Це Ваша думка😉

biguniak 
Новенький


З нами з: 24.09.12
Востаннє: 19.01.21
Повідомлень: 8

2020-12-30 17:58  
дно...
lunatiq 
Частий відвідувач


З нами з: 01.02.16
Востаннє: 22.01.21
Повідомлень: 48

2020-12-31 10:07  
Я колись знаходив благородні ноти смаків у піврічному Фраголіно, і злився, коли мене переконували в іншому. Розуміння та гарний смак, приходять з досвідом та часом )
saharin88 
Новенький


З нами з: 18.03.18
Востаннє: 23.01.21
Повідомлень: 22

2020-12-31 17:40  
Головне протриматись перших 20 хв, далі якось крізь пальці можна дивитись.
KeryaS 
VIP


З нами з: 01.09.14
Востаннє: 22.01.21
Повідомлень: 310

2021-01-02 12:21  
Начитавшись місцевих коментаторів очікував найгіршого, але, на диво, фільм виявивився досить пристойним. Нормальна сімейна стрічка про звичайні цінності, трохи наївна і добра. Добре що режисера не понесло аж занадто в феміністичні хащі, як це зараз модно (та ж Харлі Квін від якої мені досі моторошно, як згадаю)). В цілому рекомендую до перегляду.
Українчик 
Новенький


З нами з: 05.01.15
Востаннє: 23.01.21
Повідомлень: 14

2021-01-02 18:44  
Прикро, що багато дописувачів досі не зрозуміла, що у цьому фільмі є ще й моральна частина. І є над чим задуматися після переглялу цього фільму.

Ґаль Ґадот зіграла геніально.

І напевно ніхто не помітив, що у фільми назрівала Третя Світова, яка б знищила усю планету ?! Треба бути уважнішим до деталей.

kpomed 
Частий відвідувач


З нами з: 12.10.13
Востаннє: 22.01.21
Повідомлень: 45

2021-01-03 12:49  
постійно фоновий шум, так ніби пилосос в сусідній кімнаті працює
ryder2 
Свій


З нами з: 01.11.17
Востаннє: 22.01.21
Повідомлень: 51

2021-01-05 11:31  
перша частина теж нуднувата
Anonymous 







2021-01-05 22:22  
Гарна частина.
khimera 
Свій


З нами з: 02.10.09
Востаннє: 23.01.21
Повідомлень: 52

2021-01-05 23:38  
перша частина у рази краща
Olegok13 
Новенький


З нами з: 14.11.10
Востаннє: 23.01.21
Повідомлень: 18

2021-01-07 17:36  
Індійське кіно про сильних і незалежних.
+380954897458 
VIP


З нами з: 02.06.17
Востаннє: 23.01.21
Повідомлень: 1056

2021-01-07 18:55  
KeryaS написано:
Начитавшись місцевих коментаторів очікував найгіршого, але, на диво, фільм виявивився досить пристойним.

Тож це має бути всім зрозуміло - ніколи не звертати увагу на коментарі, а завжди все перевіряти самому. Люди зазвичай залюбки поливають лайном усе що не відповідає їхнім уявленням про те, яким має бути кіно. Розуміння що світ не обертається навколо них нема ніякого.

furman1927 
Новенький


З нами з: 23.02.13
Востаннє: 22.01.21
Повідомлень: 1

2021-01-07 21:44  
Перші 40хв було ще норм, далі від нудоти доводилось терпіти цей фільм. 4 з 10
__al__ 
Новенький


З нами з: 30.03.15
Востаннє: 08.01.21
Повідомлень: 1

2021-01-08 11:40  
Додивились до кінця, але весь час хотілось перемотувати.
Кінець взагалі треш. Тенденція пхати сімейні цінності кругом де треба і не треба, для мене- за гранню.

loz_ko 
Частий відвідувач


З нами з: 29.07.08
Востаннє: 23.01.21
Повідомлень: 46

2021-01-09 23:11  
Судячи із касових зборів, чим більше грошей у треш запхнеш, тим менша його прибутковість. Перша частина була так собі, гляну що тут, але щось мені підказує, що цільова аудиторія домогосподарки.
yug_ua 
Новенький


З нами з: 22.03.12
Востаннє: 20.01.21
Повідомлень: 6

2021-01-10 19:35  
Anonymous
Дякую.

b!tanga 
Новенький


З нами з: 20.11.13
Востаннє: 19.01.21
Повідомлень: 7

2021-01-11 00:00  
Напевно найабсурдніший сюжет фільму про комікси. Нісенітниця ще та ...
Ваш часовий пояс: GMT + 2 Години

Нова тема   Відповісти Сторінка:  1, 2  наступна